<?xml version="1.0" standalone="no"?>
<!DOCTYPE svg PUBLIC "-//W3C//DTD SVG 1.1//EN" "http://www.w3.org/Graphics/SVG/1.1/DTD/svg11.dtd" >
<svg xmlns="http://www.w3.org/2000/svg">
<metadata>Generated by IcoMoon</metadata>
<defs>
<font id="icomoon" horiz-adv-x="1024">
<font-face units-per-em="1024" ascent="960" descent="-64" />
<missing-glyph horiz-adv-x="1024" />
<glyph unicode="&#x20;" horiz-adv-x="512" d="" />
<glyph unicode="&#xe900;" glyph-name="right-arrow" d="M1017.232 464.407v0l-232.722 232.724c-8.36 9.762-23.052 10.9-32.813 2.538-9.762-8.36-10.9-23.052-2.538-32.813 0.78-0.91 1.628-1.76 2.538-2.538l192.927-193.161h-921.352c-12.852 0-23.272-10.42-23.272-23.274s10.42-23.272 23.272-23.272h921.352l-192.927-192.927c-9.762-8.36-10.9-23.052-2.538-32.813s23.052-10.9 32.813-2.538c0.91 0.78 1.76 1.628 2.538 2.538l232.724 232.724c9.022 9.074 9.022 23.734-0.002 32.811z" />
<glyph unicode="&#xe901;" glyph-name="left-arrow" d="M1000.728 471.843h-921.352l192.927 192.927c9.126 9.062 9.178 23.806 0.116 32.929-9.062 9.126-23.806 9.178-32.929 0.116l-232.722-232.722c-9.024-9.078-9.024-23.738 0-32.813l232.724-232.724c8.36-9.762 23.052-10.9 32.813-2.538 9.762 8.36 10.9 23.052 2.538 32.813-0.78 0.91-1.628 1.76-2.538 2.538l-192.927 192.927h921.352c12.854 0 23.272 10.42 23.272 23.272s-10.422 23.276-23.274 23.276z" />
<glyph unicode="&#xe902;" glyph-name="facebook" horiz-adv-x="1022" d="M580-62h-163.984c-27.391 0-49.672 22.281-49.672 49.672v369.875h-95.672c-27.391 0-49.672 22.289-49.672 49.672v158.492c0 27.391 22.281 49.672 49.672 49.672h95.672v79.367c0 78.695 24.711 145.648 71.453 193.609 46.953 48.18 112.57 73.641 189.758 73.641l125.063-0.203c27.344-0.047 49.586-22.328 49.586-49.672v-147.156c0-27.391-22.273-49.672-49.656-49.672l-84.203-0.031c-25.68 0-32.219-5.148-33.617-6.727-2.305-2.617-5.047-10.016-5.047-30.445v-62.703h116.539c8.773 0 17.273-2.164 24.578-6.242 15.758-8.805 25.555-25.453 25.555-43.445l-0.063-158.492c0-27.375-22.281-49.656-49.672-49.656h-116.938v-369.883c0-27.391-22.289-49.672-49.68-49.672zM426.375-1.969h143.266v386.391c0 18.289 14.883 33.164 33.164 33.164h133.453l0.055 137.766h-133.516c-18.281 0-33.156 14.875-33.156 33.164v89.578c0 23.453 2.383 50.125 20.086 70.172 21.391 24.234 55.102 27.031 78.602 27.031l73.844 0.031v126.453l-114.664 0.188c-124.047 0-201.133-79.406-201.133-207.219v-106.234c0-18.281-14.875-33.164-33.156-33.164h-112.188v-137.766h112.188c18.281 0 33.156-14.875 33.156-33.164zM752.5 901.766h0.008z" />
<glyph unicode="&#xe903;" glyph-name="dribble" d="M512 960c-281.92 0-512-230.1-512-512 0-281.92 230.1-512 512-512 281.92 0 512 230.1 512 512 0 281.92-230.1 512-512 512zM859.28 736.98c63.92-76.68 102.94-174.78 104.62-281.78-80.12 18.74-169.1 20-259.72 3.48-23.58-4.3-47.16-9.76-70.6-16.32-7.8 21.22-16.080 42.26-24.88 63.1-8.98 21.26-18.46 42.16-28.38 62.76 107.98 41.24 224.98 102.64 278.96 168.76zM512 900c117.64 0 224.9-45.18 305.4-119.080-31.4-42.82-120.88-105.16-264.44-158.92-50.12 93.32-110.22 179.080-179.66 256.2 43.72 14.14 90.34 21.8 138.7 21.8zM313.9 854.2c70.82-75.86 131.74-160.58 181.92-252.1-149.36-48.34-300.58-68.060-424.92-55.32 30.28 135.3 121.38 247.88 243 307.42zM60 448c0 13.28 0.62 26.42 1.74 39.4 27.44-2.9 56.060-4.36 85.64-4.36 116.66 0 247.72 22.44 376.42 65.060 19.64-40.2 37.3-81.56 52.88-123.94-50.18-18.040-99.020-40.98-144.88-68.28-112.44-66.94-194.7-153.060-228.82-237.42-87.94 82.52-142.98 199.72-142.98 329.54zM512-4c-96.58 0-186.18 30.46-259.72 82.28 22.8 77.040 99.92 160.38 210.22 226.040 38.86 23.16 84.3 44.98 133.76 62.72 35.060-110.2 56.54-226.52 63.36-346.26-46.28-16.040-95.94-24.78-147.62-24.78zM718.14 45.8c-8.32 116.64-30.040 230.2-64.9 339.28 97.2 26.72 205.16 35.68 307.54 9.12-18.12-152.020-111.96-281.14-242.64-348.4z" />
<glyph unicode="&#xe904;" glyph-name="flame" d="M512.328-64c-196.484 0-356.328 160.734-356.328 358.305 0 86.102 29.328 144.641 63.297 212.422 18.852 37.641 38.352 76.555 56.359 126.211l18.734 51.664c27.625-6.766 18.266-4.477 45.883-11.242l-7.266-54.477c-5.945-44.516 2.18-95.008 22.281-138.523 8.523-18.461 18.813-34.844 30.234-48.461-3.961 72.281 3.445 141.953 22.148 207.875 19.609 69.102 51.070 132.813 93.516 189.375 52.828 70.383 113.5 116.352 141.633 120.133l79.734 10.719-53.656-59.953c-24.375-27.227-37.797-62.375-37.797-98.969 0-70.734 43.391-120.93 93.625-179.055 32.211-37.258 68.711-79.492 96.359-131.375 32.008-60.063 47.563-124.281 47.563-196.344 0-197.57-159.844-358.305-356.32-358.305zM283.789 503c-3.875-7.852-7.688-15.461-11.398-22.875-31.852-63.563-57-113.766-57-185.82 0-164.82 133.203-298.914 296.938-298.914 163.727 0 296.938 134.094 296.938 298.914 0 139.102-65.82 215.242-129.469 288.883-55.586 64.305-108.086 125.047-108.086 217.891 0 7.406 0.391 14.766 1.172 22.063-16.75-18.953-34.336-41.93-50.961-69.047-46.93-76.563-97.273-205.039-70.547-382.367l7.813-51.891-48.508 20.016c-44.547 18.391-83.367 59.445-109.313 115.609-7.109 15.398-12.984 31.328-17.578 47.539z" />
<glyph unicode="&#xe905;" glyph-name="linkedin" d="M267.13-53.562h-267.13v690.082h267.13zM44.519-9.043h178.092v601.043h-178.092zM1024.003-53.562h-267.13v378.432c0 36.88-29.902 66.783-66.783 66.783-36.889 0-66.783-29.902-66.783-66.783v-378.432h-267.13v690.082h267.13v-44.796c40.321 29.152 88.818 44.829 138.571 44.796 144.416 0 262.125-117.147 262.125-261.285zM801.391-9.043h178.084v384.277c-0.302 119.918-97.679 216.921-217.598 216.766-54.815 0-106.296-23.095-144.693-64.834l-38.405-42.016v106.851h-178.084v-601.043h178.084v333.913c0 61.476 49.834 111.302 111.31 111.302 61.467 0 111.302-49.826 111.302-111.302zM133.565 681.046c-73.769 0-133.565 59.796-133.565 133.565 0 73.761 59.796 133.565 133.565 133.565s133.565-59.804 133.565-133.565c-0.155-73.704-59.861-133.418-133.565-133.565zM133.565 903.649c-49.174 0-89.046-39.864-89.046-89.038 0-49.182 39.872-89.046 89.046-89.046s89.046 39.864 89.046 89.046c0 49.174-39.872 89.038-89.046 89.038z" />
<glyph unicode="&#xe906;" glyph-name="tick-inside-circle" d="M302.080 545.28l-71.68-71.68 230.4-230.4 512 512-71.68 71.68-440.32-440.32-158.72 158.72zM921.6 448c0-225.28-184.32-409.6-409.6-409.6s-409.6 184.32-409.6 409.6 184.32 409.6 409.6 409.6c40.96 0 76.8-5.12 112.64-15.36l81.922 81.92c-61.442 20.48-128.002 35.84-194.562 35.84-281.6 0-512-230.4-512-512s230.4-512 512-512 512 230.4 512 512h-102.4z" />
<glyph unicode="&#xe907;" glyph-name="pin" d="M511.588 41.638c-19.896-21.57-39.376-42.13-54.176-57.688-1.175-1.172-2.43-2.265-3.755-3.27l-0.091-0.066c-1.416 1.071-2.671 2.164-3.847 3.337l0.001-0.001c-97.082 102.050-206.308 221.69-274.52 350.786-79.358 150.162-87.12 281.782-23.822 402.224 58.092 108.392 173.858 176.972 302.188 179.040 128.33-2.062 244.096-70.642 302.106-178.876 50.766-96.6 55.828-199.236 15.474-313.786-0.818-2.211-1.292-4.764-1.292-7.428 0-12.15 9.85-22 22-22 9.575 0 17.722 6.117 20.745 14.656l0.048 0.154c44.026 124.966 37.96 242.346-18.11 349.030-65.686 122.554-196.21 200.050-340.636 202.25h-0.668c-144.432-2.2-274.95-79.696-340.72-202.412-29.754-54.742-47.247-119.873-47.247-189.089 0-13.452 0.661-26.75 1.952-39.863l-0.132 1.66c6.28-68.386 29.564-141.098 69.2-216.118 70.9-134.17 182.646-256.6 281.82-360.84l0.508-0.514c7.388-7.26 18.936-16.824 34.572-16.824h0.764c15.634 0 27.2 9.564 34.566 16.824l0.506 0.514c14.942 15.706 34.686 36.542 54.91 58.466 3.613 3.908 5.829 9.154 5.829 14.917 0 12.15-9.85 22-22 22-6.387 0-12.138-2.722-16.158-7.069l-0.013-0.015zM249.424 567.452c0.003-112.742 91.4-204.136 204.142-204.136 112.745 0 204.142 91.397 204.142 204.142s-91.397 204.142-204.142 204.142v0c-112.694-0.132-204.013-91.454-204.142-204.136v-0.012zM613.708 567.452c-0.003-88.441-71.7-160.136-160.142-160.136-88.444 0-160.142 71.698-160.142 160.142s71.698 160.142 160.142 160.142v0c88.404-0.104 160.042-71.743 160.142-160.138v-0.010zM754.69 344.412c-112.666 0-204-91.334-204-204s91.334-204 204-204c112.666 0 204 91.334 204 204v0c-0.13 112.614-91.386 203.87-203.987 204h-0.013zM754.69-19.588c-88.366 0-160 71.634-160 160s71.634 160 160 160c88.366 0 160-71.634 160-160v0c-0.102-88.324-71.676-159.898-159.99-160h-0.010zM837.428 162.412h-60.738v60.738c0 12.15-9.85 22-22 22s-22-9.85-22-22v0-60.738h-60.736c-12.15 0-22-9.85-22-22s9.85-22 22-22v0h60.736v-60.736c0-12.15 9.85-22 22-22s22 9.85 22 22v0 60.736h60.738c12.15 0 22 9.85 22 22s-9.85 22-22 22v0z" />
<glyph unicode="&#xe908;" glyph-name="search-mail" d="M634.978 819.783c-82.257 2.067-163.699 2.067-245.958 0-68.125-1.711-115.728-2.988-152.474-9.388-35.308-6.149-57.323-16.543-75.424-34.714-18.228-18.298-28.461-40.032-34.417-74.329-6.22-35.821-7.29-82.039-8.706-148.408-0.887-41.601-0.887-82.954 0-124.554 1.415-66.372 2.485-112.589 8.706-148.412 5.956-34.295 16.189-56.030 34.417-74.325 18.102-18.172 40.117-28.565 75.425-34.714 36.746-6.4 84.349-7.68 152.474-9.391 20.249-0.508 31.987-0.358 45.684-0.179 9.489 0.119 19.917 0.256 34.769 0.192 17.673-0.081 31.936-14.468 31.859-32.141s-14.468-31.936-32.141-31.859c-12.416 0.051-22.374-0.064-31.927-0.175-14.978-0.179-28.956-0.341-49.852 0.183l-2.484 0.064c-65.058 1.63-117.408 2.948-159.363 10.253-43.925 7.65-79.625 22.323-109.785 52.595-30.033 30.148-44.628 65.335-52.133 108.548-7.145 41.148-8.233 92.22-9.582 155.486l-0.053 2.509c-0.907 42.509-0.907 84.774 0 127.284l0.054 2.506c1.348 63.268 2.436 114.341 9.582 155.488 7.504 43.213 22.099 78.4 52.133 108.547 30.159 30.274 65.859 44.946 109.785 52.596 41.955 7.307 94.306 8.621 159.365 10.255l2.482 0.062c83.328 2.094 165.846 2.094 249.174 0l2.483-0.062c65.058-1.634 117.41-2.948 159.364-10.255 43.925-7.65 79.625-22.322 109.786-52.596 30.033-30.147 44.629-65.334 52.13-108.547 7.147-41.146 8.235-92.22 9.583-155.488l0.055-2.506c0.606-28.463 0.678-56.853 0.678-84.975 0-17.673-14.327-32-32-32s-32 14.327-32 32c0 28.075-0.073 55.881-0.666 83.61-1.417 66.369-2.483 112.588-8.704 148.408-5.956 34.296-16.192 56.031-34.419 74.329-18.103 18.17-40.115 28.565-75.426 34.714-36.745 6.4-84.348 7.677-152.474 9.388zM364.491 551.385l-294.956 167.451 31.597 55.656 294.956-167.45c52.902-30.033 85.713-41.711 115.913-41.711s63.010 11.678 115.913 41.711l294.955 167.45 31.599-55.656-294.955-167.451c-54.861-31.142-99.883-50.056-147.511-50.056s-92.651 18.914-147.509 50.056zM565.333 233.532c0 100.774 81.694 182.468 182.464 182.468 100.774 0 182.468-81.694 182.468-182.468 0-38.878-12.164-74.923-32.887-104.525l63.881-63.68c12.514-12.476 12.548-32.734 0.073-45.252s-32.738-12.548-45.257-0.073l-63.991 63.787c-29.555-20.625-65.51-32.721-104.286-32.721-100.77 0-182.464 81.694-182.464 182.464zM747.797 352c-65.425 0-118.464-53.039-118.464-118.468 0-65.425 53.039-118.464 118.464-118.464 65.429 0 118.468 53.039 118.468 118.464 0 65.429-53.039 118.468-118.468 118.468z" />
<glyph unicode="&#xe909;" glyph-name="phone-call" d="M809.283 325.668c-20.964 21.828-46.25 33.499-73.049 33.499-26.583 0-52.085-11.454-73.914-33.283l-68.295-68.078c-5.619 3.026-11.238 5.835-16.641 8.645-7.78 3.89-15.129 7.564-21.396 11.454-63.972 40.631-122.109 93.581-177.869 162.092-27.015 34.147-45.17 62.892-58.353 92.068 17.722 16.209 34.147 33.067 50.14 49.276 6.051 6.051 12.103 12.319 18.154 18.37 45.386 45.386 45.386 104.171 0 149.557l-59.001 59.001c-6.7 6.7-13.616 13.616-20.099 20.532-12.967 13.4-26.583 27.231-40.631 40.199-20.964 20.748-46.034 31.77-72.401 31.77s-51.869-11.022-73.482-31.77c-0.216-0.216-0.216-0.216-0.432-0.432l-73.482-74.13c-27.664-27.664-43.441-61.379-46.899-100.497-5.187-63.108 13.4-121.893 27.664-160.363 35.012-94.445 87.313-181.975 165.333-275.772 94.662-113.032 208.558-202.29 338.664-265.182 49.708-23.557 116.058-51.437 190.188-56.192 4.539-0.216 9.293-0.432 13.616-0.432 49.924 0 91.852 17.938 124.703 53.598 0.216 0.432 0.648 0.648 0.864 1.081 11.238 13.616 24.206 25.935 37.821 39.118 9.293 8.861 18.803 18.154 28.096 27.88 21.396 22.261 32.634 48.195 32.634 74.778 0 26.799-11.454 52.518-33.283 74.13l-118.651 119.083zM886.654 98.092c-0.216 0-0.216-0.216 0 0-8.429-9.077-17.074-17.29-26.367-26.367-14.048-13.4-28.312-27.448-41.712-43.224-21.828-23.341-47.547-34.363-81.262-34.363-3.242 0-6.7 0-9.942 0.216-64.188 4.106-123.838 29.176-168.575 50.573-122.325 59.217-229.738 143.289-318.996 249.837-73.698 88.826-122.974 170.953-155.608 259.131-20.099 53.814-27.448 95.742-24.206 135.293 2.161 25.286 11.887 46.25 29.825 64.188l73.698 73.698c10.59 9.942 21.828 15.345 32.851 15.345 13.616 0 24.638-8.213 31.554-15.129 0.216-0.216 0.432-0.432 0.648-0.648 13.183-12.319 25.719-25.070 38.902-38.686 6.7-6.916 13.616-13.832 20.532-20.964l59.001-59.001c22.909-22.909 22.909-44.089 0-66.998-6.268-6.268-12.319-12.535-18.587-18.587-18.154-18.587-35.444-35.876-54.247-52.734-0.432-0.432-0.864-0.648-1.081-1.081-18.587-18.587-15.129-36.741-11.238-49.060 0.216-0.648 0.432-1.297 0.648-1.945 15.345-37.173 36.957-72.185 69.807-113.896l0.216-0.216c59.65-73.482 122.541-130.754 191.917-174.627 8.861-5.619 17.938-10.158 26.583-14.48 7.78-3.89 15.129-7.564 21.396-11.454 0.864-0.432 1.729-1.081 2.593-1.513 7.348-3.674 14.264-5.403 21.396-5.403 17.938 0 29.176 11.238 32.851 14.912l73.914 73.914c7.348 7.348 19.019 16.209 32.634 16.209 13.4 0 24.422-8.429 31.122-15.777 0.216-0.216 0.216-0.216 0.432-0.432l119.083-119.083c22.261-22.044 22.261-44.737 0.216-67.646zM553.394 716.417c56.624-9.509 108.061-36.309 149.124-77.372s67.646-92.5 77.372-149.124c2.377-14.264 14.696-24.206 28.744-24.206 1.729 0 3.242 0.216 4.971 0.432 15.993 2.593 26.583 17.722 23.99 33.715-11.671 68.511-44.089 130.97-93.581 180.462s-111.951 81.91-180.462 93.581c-15.993 2.593-30.905-7.997-33.715-23.773s7.564-31.122 23.557-33.715zM1022.811 508.292c-19.235 112.816-72.401 215.474-154.095 297.168s-184.352 134.86-297.168 154.095c-15.777 2.81-30.689-7.997-33.499-23.773-2.593-15.993 7.997-30.905 23.99-33.715 100.713-17.074 192.565-64.837 265.614-137.67 73.049-73.049 120.596-164.901 137.67-265.614 2.377-14.264 14.696-24.206 28.744-24.206 1.729 0 3.242 0.216 4.971 0.432 15.777 2.377 26.583 17.506 23.773 33.283z" />
<glyph unicode="&#xe90a;" glyph-name="search-interface-symbol" d="M1014.294-8.29l-264.38 260.155c69.233 75.219 111.771 174.698 111.771 284.164-0.033 234.168-192.91 423.971-430.854 423.971s-430.821-189.803-430.821-423.971 192.877-423.971 430.821-423.971c102.808 0 197.102 35.56 271.168 94.678l265.406-261.181c12.932-12.74 33.927-12.74 46.859 0 12.962 12.738 12.962 33.415 0.030 46.155zM430.831 177.289c-201.326 0-364.533 160.613-364.533 358.74s163.207 358.74 364.533 358.74c201.328 0 364.533-160.613 364.533-358.74s-163.205-358.74-364.533-358.74z" />
<glyph unicode="&#xe90b;" glyph-name="pointed-star" d="M655.897 566.746c-11.313 0-23.323 8.732-26.828 19.49l-110.737 340.796c-3.505 10.761-9.16 10.761-12.665 0l-110.717-340.796c-3.505-10.761-15.514-19.49-26.828-19.49h-358.34c-11.313 0-13.076-5.391-3.916-12.052l289.887-210.589c9.16-6.662 13.752-20.781 10.247-31.543l-110.714-340.776c-3.505-10.761 1.087-14.1 10.247-7.441l289.887 210.589c9.16 6.662 24.001 6.662 33.161 0l289.887-210.609c9.16-6.662 13.752-3.321 10.247 7.441l-110.717 340.776c-3.505 10.761 1.087 24.881 10.247 31.543l289.887 210.589c9.16 6.662 7.398 12.052-3.916 12.052l-358.32 0.020z" />
<glyph unicode="&#xe90c;" glyph-name="customer-service-headset" d="M938.966 599.94h-36.945c-10.106 0-10.444 6.617-10.793 9.911-19.373 182.532-174.258 325.214-361.841 325.214h-34.775c-186.196 0-340.173-140.575-361.39-321.169-0.542-4.626-0.825-13.955-9.335-13.955h-38.857c-25.503 0-85.031-26.836-85.031-162.359v-71.124c0-100.513 59.529-123.695 85.031-123.695h123.624c25.503 0 46.368 20.865 46.368 46.368v264.443c0 25.503-20.865 46.368-46.368 46.368 0 0-5.82 0.511-4.337 10.878 20.4 142.728 142.189 253.332 290.294 253.332h34.775c147.099 0 269.214-108.971 289.886-250.425 0.667-4.561 3.151-13.785-3.928-13.785-25.503 0-46.368-20.865-46.368-46.368v-264.443c0-25.503 20.865-46.368 46.368-46.368h23.214c6.382 0 5.298-5.1 4.728-7.67-18.911-85.389-61.372-182.259-156.68-182.259h-70.597c-7.205 0-8.983 5.279-10.353 7.78-11.437 20.896-33.615 35.070-59.115 35.070h-65.048c-37.209 0-67.374-30.163-67.374-67.374s30.166-67.371 67.374-67.371h65.048c25.846 0 48.285 14.557 59.58 35.915 0.987 1.866 1.795 5.747 9.42 5.747h71.065c64.736 0 151.367 32.168 196.45 185.428 4.805 16.332 8.702 32.608 11.876 48.293 0.437 2.159 0.709 6.439 7.446 6.439h36.59c25.503 0 85.031 23.185 85.031 123.695v71.124c-0.003 133.594-59.532 162.362-85.034 162.362z" />
<glyph unicode="&#xe90d;" glyph-name="trophy" d="M810.667 501.333h-38.833c-17.673 0-32 14.327-32 32s14.327 32 32 32v0h38.833c52.995 0.060 95.94 43.005 96 95.994v85.339c-0.071 5.862-4.805 10.595-10.66 10.667h-106.674c-17.673 0-32 14.327-32 32s14.327 32 32 32v0h106.667c41.216-0.052 74.615-33.45 74.667-74.662v-85.338c-0.099-88.325-71.674-159.9-159.99-160h-0.010zM252.167 501.333h-38.833c-88.325 0.099-159.9 71.674-160 159.99v85.343c0.052 41.216 33.45 74.615 74.662 74.667h106.672c17.673 0 32-14.327 32-32s-14.327-32-32-32v0h-106.667c-5.862-0.071-10.595-4.805-10.667-10.66v-85.34c0.060-52.995 43.005-95.94 95.994-96h38.839c17.673 0 32-14.327 32-32s-14.327-32-32-32v0zM512 330.667c-155.693 4.98-280.871 128.932-287.79 283.656l-0.023 0.636-17.562 210.833c-0.164 1.855-0.257 4.012-0.257 6.192 0 41.243 33.431 74.678 74.673 74.683h461.917c41.242-0.005 74.674-33.44 74.674-74.683 0-2.18-0.093-4.337-0.276-6.469l0.019 0.278-17.562-210.833c-6.942-155.359-132.12-279.312-287.343-284.28l-0.469-0.012zM281.041 842.667c-0.012 0-0.027 0-0.041 0-3.092 0-5.874-1.329-7.806-3.448l-0.008-0.008c-1.743-1.861-2.814-4.371-2.814-7.131 0-0.335 0.016-0.667 0.047-0.994l-0.003 0.042 17.562-210.833c4.331-122.273 101.9-220.402 223.54-225.611l0.481-0.016c122.12 5.226 219.689 103.353 224.009 225.219l0.011 0.406 17.562 210.833c0.028 0.285 0.044 0.617 0.044 0.952 0 2.76-1.071 5.27-2.82 7.137l0.005-0.006c-1.939 2.127-4.721 3.456-7.813 3.456-0.014 0-0.029 0-0.043 0h0.002zM738.396-10.667h-452.791c-0.001 0-0.002 0-0.002 0-29.458 0-53.338 23.88-53.338 53.338 0 6.035 1.002 11.836 2.849 17.245l-0.111-0.375 28.459 85.333c7.251 21.361 27.126 36.458 50.527 36.458 0.019 0 0.038 0 0.057 0h395.914c0.012 0 0.027 0 0.042 0 23.416 0 43.304-15.106 50.45-36.105l0.111-0.375 28.438-85.312c1.736-5.034 2.738-10.835 2.738-16.87 0-29.458-23.88-53.338-53.338-53.338-0.001 0-0.002 0-0.002 0v0zM728.292 39.292v0zM300.396 53.333h423.208l-21.333 64h-380.541zM682.667 117.333h-341.333c-17.67 0.002-31.993 14.326-31.993 31.996 0 9.271 3.943 17.621 10.243 23.464l0.020 0.019c33.928 30.904 60.259 69.551 76.261 113.182l0.637 1.984c9.54 25.221 15.249 54.37 15.665 84.798l0.002 0.181c0 0.001 0 0.001 0 0.002 0 17.415 14.118 31.533 31.533 31.533 0.333 0 0.664-0.005 0.994-0.015l-0.048 0.001c17.469-0.275 31.524-14.5 31.524-32.008 0-0.166-0.001-0.331-0.004-0.496v0.025c-0.532-38.067-7.621-74.318-20.184-107.897l0.725 2.212c-11.62-32.435-26.64-60.532-45.114-85.956l0.675 0.975h199.479c-17.856 24.557-32.925 52.777-43.835 82.986l-0.747 2.368c-11.773 31.261-18.818 67.386-19.331 105.089l-0.002 0.224c-0.002 0.14-0.003 0.305-0.003 0.471 0 17.508 14.056 31.734 31.499 32.008h0.505c0 0 0.001 0 0.001 0 17.505 0 31.728-14.055 31.999-31.495v-0.025c0.402-30.468 6.066-59.491 16.121-86.371l-0.579 1.767c16.63-45.766 43.010-84.543 76.794-115.337l0.227-0.204c6.321-5.862 10.264-14.212 10.264-23.483 0-17.67-14.324-31.995-31.994-31.996v0z" />
<glyph unicode="&#xe90e;" glyph-name="user" d="M510.442 455.881c67.050 38.377 112.863 109.834 112.863 192.467 0 122.746-99.863 222.609-222.609 222.609s-222.609-99.863-222.609-222.609c0-82.633 45.813-154.090 112.863-192.467-167.712-44.033-290.949-185.835-290.949-353.904v-54.672c0-12.288 9.974-22.262 22.262-22.262s22.262 9.974 22.262 22.262v54.672c-0.002 178.487 159.788 323.762 356.172 323.762s356.174-145.275 356.174-323.762v-54.672c0-12.288 9.974-22.262 22.262-22.262s22.262 9.974 22.262 22.262v54.672c-0.002 168.069-123.239 309.915-290.951 353.904zM222.609 648.349c0 98.214 79.872 178.086 178.086 178.086s178.086-79.872 178.086-178.086c0-98.214-79.872-178.086-178.086-178.086s-178.086 79.87-178.086 178.086zM810.206 455.301c48.261 31.922 80.229 86.506 80.229 148.524 0 98.214-79.872 178.086-178.086 178.086-12.288 0-22.262-9.974-22.262-22.262s9.974-22.262 22.262-22.262c73.638 0 133.565-59.927 133.565-133.565s-59.927-133.565-133.565-133.565c-12.288 0-22.262-9.974-22.262-22.262s9.971-22.257 22.259-22.257c147.322 0 267.13-110.725 267.13-246.872v-42.518c0-12.288 9.974-22.262 22.262-22.262s22.262 9.974 22.262 22.262v42.518c0 128.667-89.756 237.967-213.794 276.434z" />
<glyph unicode="&#xe90f;" glyph-name="chat" d="M896 832c23.552 0 42.667-19.115 42.667-42.667v-597.333c0-23.552-19.115-42.667-42.667-42.667h-620.587l-190.080-149.333v789.333c0 23.552 19.115 42.667 42.667 42.667zM853.333 746.667h-682.667v-571.093l75.221 59.093h607.445zM448.64 643.755l19.072-29.355c-71.168-38.528-69.931-100.352-69.931-113.664 6.613 0.853 13.568 1.024 20.48 0.384 38.485-3.584 68.821-35.2 68.821-74.453 0-41.216-33.451-74.667-74.667-74.667-22.912 0-44.8 10.453-58.624 25.173-21.973 23.296-33.792 49.493-33.792 91.947 0 74.667 52.395 141.568 128.64 174.635zM661.973 643.755l19.072-29.355c-71.168-38.528-69.931-100.352-69.931-113.664 6.613 0.853 13.568 1.024 20.48 0.384 38.485-3.584 68.821-35.2 68.821-74.453 0-41.216-33.451-74.667-74.667-74.667-22.912 0-44.8 10.453-58.624 25.173-21.973 23.296-33.792 49.493-33.792 91.947 0 74.667 52.395 141.568 128.64 174.635z" />
<glyph unicode="&#xe910;" glyph-name="laughing" d="M934.418 737.156c-6.249 9.107-18.7 11.418-27.804 5.169-9.107-6.249-11.42-18.698-5.171-27.804 128.411-187.081 104.944-439.51-55.797-600.22-184.006-183.974-483.41-183.976-667.423 0-89.138 89.12-138.228 207.61-138.228 333.646s49.089 244.524 138.226 333.644c160.581 160.553 412.899 184.128 599.962 56.049 9.111-6.235 21.555-3.911 27.796 5.203 6.239 9.113 3.909 21.559-5.203 27.796-202.927 138.946-476.645 113.391-650.834-60.766-96.691-96.673-149.942-225.208-149.942-361.926s53.251-265.253 149.942-361.926c96.693-96.673 225.248-149.914 361.99-149.914s265.299 53.241 361.99 149.914c174.365 174.331 199.807 448.172 60.496 651.136zM840.148 783.483c3.2-7.807 11.342-12.892 19.771-12.312 8.223 0.568 15.422 6.265 17.824 14.152 2.4 7.879-0.454 16.646-6.967 21.665-6.795 5.237-16.492 5.473-23.541 0.584-7.643-5.301-10.669-15.492-7.087-24.089zM237.994 307.969c15.064-59.546 49.995-113.475 98.355-151.854 0.004-0.004 0.008-0.008 0.012-0.010 50.383-40.007 111.095-61.154 175.571-61.154s125.187 21.147 175.573 61.154c0.004 0.004 0.008 0.008 0.012 0.010 48.36 38.377 83.287 92.306 98.351 151.842 5.605 22.103 8.487 44.974 8.607 68.003 0.004 0.274 0.022 0.546 0.022 0.822v43.444c0 11.045-8.955 19.997-19.997 19.997h-525.136c-11.043 0-19.997-8.953-19.997-19.997v-43.494c0-0.294 0.020-0.584 0.024-0.878 0.13-22.993 3.010-45.828 8.605-67.885zM511.932 134.948c-48.050 0-93.662 13.676-133.142 39.745 35.631 34.283 83.089 53.587 133.142 53.587 50.055 0 97.513-19.305 133.144-53.587-39.483-26.069-85.095-39.745-133.144-39.745zM676.768 199.595c-43.456 43.87-102.472 68.681-164.836 68.681-62.362 0-121.378-24.811-164.834-68.681-29.39 27.282-51.779 61.644-64.735 99.399 9.773-3.931 20.433-6.117 31.598-6.117h395.947c11.165 0 21.825 2.186 31.598 6.117-12.956-37.753-35.347-72.116-64.737-99.399zM269.36 400.226h485.144v-22.777c0-0.456-0.018-0.91-0.020-1.366-0.466-23.895-20.297-43.214-44.576-43.214h-395.949c-24.257 0-44.078 19.287-44.574 43.108-0.002 0.49-0.022 0.98-0.022 1.472v22.777zM724.594 588.769c-19.569-0.514-38.835-4.595-56.822-11.874 11.852 24.423 31.632 44.776 56.626 57.060 9.913 4.871 14 16.856 9.127 26.766-4.871 9.913-16.858 14-26.766 9.127-51.571-25.343-86.375-76.636-90.828-133.858-0.626-8.063 3.664-15.71 10.875-19.377 2.868-1.458 5.971-2.172 9.059-2.172 4.673 0 9.301 1.636 13.004 4.801 43.484 37.199 108.218 39.327 153.926 5.057 8.839-6.627 21.373-4.831 27.996 4.003 6.625 8.837 4.833 21.371-4.003 27.996-29.212 21.903-65.501 33.438-102.192 32.47zM197.080 556.302c-8.837-6.625-10.627-19.159-4.003-27.996 6.625-8.835 19.155-10.629 27.996-4.003 45.704 34.269 110.439 32.142 153.924-5.057 3.704-3.166 8.331-4.801 13.004-4.801 3.086 0 6.193 0.714 9.059 2.172 7.209 3.666 11.5 11.314 10.875 19.377-4.453 57.224-39.257 108.516-90.828 133.858-9.915 4.871-21.895 0.784-26.766-9.127-4.873-9.913-0.786-21.897 9.127-26.768 24.995-12.282 44.776-32.636 56.626-57.060-17.988 7.279-37.251 11.36-56.822 11.874-36.661 0.978-72.978-10.567-102.19-32.468z" />
<glyph unicode="&#xe911;" glyph-name="user-1" d="M874.040 298.040c-55.766 55.764-122.142 97.046-194.562 122.036 77.564 53.422 128.522 142.828 128.522 243.924 0 163.214-132.786 296-296 296s-296-132.786-296-296c0-101.096 50.958-190.502 128.524-243.924-72.42-24.99-138.796-66.272-194.562-122.036-96.704-96.706-149.962-225.28-149.962-362.040h80c0 238.206 193.794 432 432 432s432-193.794 432-432h80c0 136.76-53.258 265.334-149.96 362.040zM512 448c-119.102 0-216 96.896-216 216s96.898 216 216 216c119.102 0 216-96.896 216-216s-96.898-216-216-216z" />
<glyph unicode="&#xe912;" glyph-name="down-arrow" d="M512 256c-8.184 0-16.376 3.128-22.624 9.376l-320 320c-12.504 12.504-12.504 32.752 0 45.248s32.752 12.504 45.248 0l297.376-297.376 297.376 297.376c12.504 12.504 32.752 12.504 45.248 0s12.504-32.752 0-45.248l-320-320c-6.248-6.248-14.44-9.376-22.624-9.376z" />
<glyph unicode="&#xe913;" glyph-name="play-button-arrowhead" d="M217.828 937.422c-92.319 52.956-167.166 9.574-167.166-96.819v-785.131c0-106.499 74.847-149.825 167.166-96.919l686.243 393.556c92.351 52.974 92.351 138.801 0 191.763l-686.243 393.55z" />
<glyph unicode="&#xe914;" glyph-name="shield" d="M491.738 914.893c6.656 1.627 13.457 2.441 20.262 2.441s13.606-0.814 20.262-2.441l298.667-73.007c38.199-9.338 65.071-43.569 65.071-82.893v-362.752c0-143.603-81.809-274.662-210.82-337.737l-154.441-75.503c-5.914-2.889-12.326-4.335-18.739-4.335s-12.826 1.446-18.739 4.335l-154.44 75.503c-129.011 63.074-210.821 194.133-210.821 337.737v362.752c0 39.323 26.872 73.555 65.071 82.893l298.667 73.007zM712.836 545.83c16.661 16.662 16.661 43.677 0 60.34s-43.678 16.663-60.339 0l-183.164-183.16-97.83 97.826c-16.663 16.663-43.677 16.663-60.34 0-16.662-16.661-16.662-43.678 0-60.339l128-128c16.661-16.661 43.678-16.661 60.339 0z" />
<glyph unicode="&#xe915;" glyph-name="link" d="M992 896v-288c0-17.688-14.312-32-32-32s-32 14.312-32 32v210.752l-457.376-457.376c-6.248-6.248-14.44-9.376-22.624-9.376s-16.376 3.128-22.624 9.376c-12.504 12.504-12.504 32.752 0 45.248l457.376 457.376h-210.752c-17.688 0-32 14.312-32 32s14.312 32 32 32h288c17.688 0 32-14.312 32-32zM864 64v384c0 17.688-14.312 32-32 32s-32-14.312-32-32v-384c0-17.656-14.344-32-32-32h-640c-17.656 0-32 14.344-32 32v640c0 17.656 14.344 32 32 32h384c17.688 0 32 14.312 32 32s-14.312 32-32 32h-384c-52.936 0-96-43.064-96-96v-640c0-52.936 43.064-96 96-96h640c52.936 0 96 43.064 96 96z" />
<glyph unicode="&#xe916;" glyph-name="plus" d="M575.888 511.888v448.112h-127.775v-448.112h-448.112v-127.775h448.112v-448.112h127.775v448.112h448.112v127.775z" />
<glyph unicode="&#xe917;" glyph-name="email" d="M1024 737.233c0 51.96-42.274 94.234-94.234 94.234h-835.531c-51.95-0.002-94.216-42.256-94.234-94.25v-578.416c0-52.61 42.704-94.266 94.266-94.266h835.465c52.608 0 94.266 42.702 94.266 94.266v578.4c0 0.004 0 0.008 0 0.012 0.002 0.006 0.002 0.012 0.002 0.020zM94.234 771.465h835.531c18.876 0 34.234-15.358 34.234-34.282 0-10.056-4.998-19.39-13.378-24.974l-419.612-279.753c-11.546-7.698-26.47-7.7-38.018 0 0 0-419.622 279.759-419.614 279.753 0.002-0.002-0.006 0.004-0.008 0.006-8.372 5.578-13.37 14.912-13.37 25.018 0 18.876 15.358 34.232 34.234 34.232zM929.734 124.535h-835.467c-18.678 0-34.266 15.102-34.266 34.266v490.214l399.708-266.479c15.884-10.59 34.088-15.884 52.292-15.884 18.206 0 36.412 5.294 52.294 15.884l399.706 266.479v-490.216c0-18.676-15.102-34.264-34.266-34.264z" />
<glyph unicode="&#xe918;" glyph-name="edit" d="M945.112 316.73c-14.086 0-25.503-11.417-25.503-25.503v-226.438c-0.050-42.239-34.27-76.469-76.509-76.509h-715.586c-42.239 0.040-76.459 34.27-76.509 76.509v664.58c0.050 42.229 34.27 76.459 76.509 76.509h226.438c14.086 0 25.503 11.417 25.503 25.503 0 14.076-11.417 25.503-25.503 25.503h-226.438c-70.392-0.080-127.435-57.123-127.515-127.515v-664.59c0.080-70.392 57.123-127.435 127.515-127.515h715.586c70.392 0.080 127.435 57.123 127.515 127.515v226.448c0 14.086-11.417 25.503-25.503 25.503zM960.513 922.503c-44.819 44.819-117.483 44.819-162.302 0l-454.988-454.988c-3.118-3.118-5.37-6.983-6.545-11.227l-59.832-216.008c-2.461-8.856 0.040-18.34 6.535-24.845 6.505-6.495 15.989-8.996 24.845-6.545l216.008 59.842c4.244 1.176 8.109 3.427 11.227 6.545l454.978 454.998c44.75 44.849 44.75 117.453 0 162.302zM398.792 450.939l372.372 372.382 120.093-120.093-372.382-372.382zM374.803 402.802l95.945-95.955-132.715-36.77zM954.376 766.338l-27.047-27.047-120.103 120.103 27.057 27.047c24.895 24.895 65.262 24.895 90.157 0l29.936-29.926c24.855-24.925 24.855-65.262 0-90.177z" />
<glyph unicode="&#xe919;" glyph-name="right-arrow-1" d="M1013.8 473l-299.2 301.6c-13.8 13.8-36.2 14-50 0.2s-14-36.2-0.2-50l239.4-241.4h-868.4c-19.6 0-35.4-15.8-35.4-35.4s15.8-35.4 35.4-35.4h868.4l-239.4-241.4c-13.8-13.8-13.6-36.2 0.2-50s36.2-13.6 50 0.2l299.2 301.6c13.6 13.8 13.6 36.2 0 50z" />
<glyph unicode="&#xe91a;" glyph-name="mail" d="M42.667 234.667c0-70.694 57.308-128 128-128h341.333c23.565 0 42.667 19.102 42.667 42.667s-19.102 42.667-42.667 42.667h-341.333c-23.564 0-42.667 19.102-42.667 42.667v415.28l305.417-237.548c46.225-35.951 110.946-35.951 157.171 0l305.412 237.545v-159.277c0-23.565 19.102-42.667 42.667-42.667s42.667 19.102 42.667 42.667v170.667c0 70.692-57.306 128-128 128h-682.667c-70.692 0-128-57.308-128-128zM197.496 704h629.013l-288.311-224.243c-15.407-11.981-36.983-11.981-52.39 0zM810.667 362.667c23.565 0 42.667-19.102 42.667-42.667v-85.333h85.333c23.565 0 42.667-19.102 42.667-42.667s-19.102-42.667-42.667-42.667h-85.333v-85.333c0-23.561-19.102-42.667-42.667-42.667s-42.667 19.106-42.667 42.667v85.333h-85.333c-23.565 0-42.667 19.102-42.667 42.667s19.102 42.667 42.667 42.667h85.333v85.333c0 23.565 19.102 42.667 42.667 42.667z" />
<glyph unicode="&#xe91b;" glyph-name="right-up" d="M682.833 558.336l-367.232-367.232-60.331 60.331 367.189 367.232h-323.626v85.333h469.333v-469.333h-85.333z" />
<glyph unicode="&#xe91c;" glyph-name="remove" d="M0 521.143h1024v-146.287h-1024v146.287z" />
<glyph unicode="&#xe91d;" glyph-name="close" d="M605.814 447.162l398.725 398.737c25.948 25.936 25.948 67.871 0 93.808-25.936 25.936-67.871 25.936-93.808 0l-398.737-398.737-398.725 398.737c-25.948 25.936-67.871 25.936-93.808 0-25.948-25.936-25.948-67.871 0-93.808l398.725-398.737-398.725-398.737c-25.948-25.936-25.948-67.871 0-93.808 12.926-12.938 29.921-19.437 46.904-19.437s33.966 6.499 46.904 19.437l398.725 398.737 398.737-398.737c12.938-12.938 29.921-19.437 46.904-19.437s33.966 6.499 46.904 19.437c25.948 25.936 25.948 67.871 0 93.808z" />
<glyph unicode="&#xe91e;" glyph-name="arrows" d="M818.918 959.718l-818.918 0.282 0.152-819.201 102.247-0.143-0.009 644.545 849.205-849.202 72.409 72.409-849.205 849.202h644.403z" />
<glyph unicode="&#xe91f;" glyph-name="contact" d="M768 864h-512c-88.224 0-160-71.776-160-160v-512c0-88.224 71.776-160 160-160h512c88.224 0 160 71.776 160 160v512c0 88.224-71.776 160-160 160zM864 192c0-52.928-43.072-96-96-96h-512c-52.928 0-96 43.072-96 96v512c0 52.928 43.072 96 96 96h512c52.928 0 96-43.072 96-96zM512.096 453.568c70.592 0 128 57.408 128 128s-57.408 128-128 128-128-57.408-128-128 57.408-128 128-128zM512.096 645.568c35.296 0 64-28.704 64-64s-28.704-64-64-64-64 28.704-64 64 28.704 64 64 64zM512 431.296c-123.488 0-224-100.48-224-224 0-17.664 14.304-32 32-32h384c17.696 0 32 14.336 32 32 0 123.52-100.512 224-224 224zM355.232 239.296c14.88 72.928 79.488 128 156.768 128s141.92-55.072 156.768-128z" />
<glyph unicode="&#xe920;" glyph-name="left" d="M277.333 832c136.286 0 234.667-112.514 234.663-279.11-0.873-242.054-182.837-413.193-445.347-446.058-24.355-3.049-33.745 30.689-11.318 40.661 100.727 44.789 151.599 101.624 158.17 157.879 4.909 42.030-17.938 78.846-46.628 85.74-74.376 17.872-124.208 110.494-124.208 206.221 0 129.603 105.064 234.667 234.667 234.667zM789.333 832c136.286 0 234.667-112.514 234.663-279.11-0.873-242.054-182.837-413.193-445.347-446.058-24.355-3.049-33.745 30.689-11.318 40.661 100.727 44.789 151.599 101.624 158.17 157.879 4.909 42.030-17.938 78.846-46.628 85.74-74.376 17.872-124.208 110.494-124.208 206.221 0 129.603 105.064 234.667 234.667 234.667z" />
<glyph unicode="&#xe921;" glyph-name="clock" d="M512 917.333c-259.206 0-469.333-210.128-469.333-469.333s210.128-469.333 469.333-469.333c259.206 0 469.333 210.128 469.333 469.333v0c-0.315 259.079-210.255 469.018-469.303 469.333h-0.030zM512 64c-212.077 0-384 171.923-384 384s171.923 384 384 384c212.077 0 384-171.923 384-384v0c-0.267-211.97-172.030-383.733-383.974-384h-0.026zM554.667 465.664v238.336c0 23.564-19.103 42.667-42.667 42.667s-42.667-19.103-42.667-42.667v0-256c0.003-11.781 4.78-22.446 12.501-30.165l128-128c7.665-7.41 18.12-11.977 29.641-11.977 23.564 0 42.667 19.103 42.667 42.667 0 11.521-4.567 21.976-11.989 29.653l0.012-0.012z" />
<glyph unicode="&#xe922;" glyph-name="left-arrow-1" d="M864 480h-638.384l244.448 232.832c12.8 12.192 13.296 32.448 1.104 45.248-12.176 12.784-32.432 13.296-45.248 1.104l-279.168-265.92c-12.080-12.096-18.752-28.16-18.752-45.264 0-17.088 6.672-33.168 19.312-45.792l278.624-265.376c6.192-5.904 14.128-8.832 22.064-8.832 8.448 0 16.896 3.328 23.184 9.936 12.192 12.8 11.696 33.040-1.104 45.232l-245.472 232.832h639.392c17.664 0 32 14.336 32 32s-14.336 32-32 32z" />
<glyph unicode="&#xe924;" glyph-name="calendar" d="M904 880h-48v80h-80v-80h-528v80h-80v-80h-48c-66.168 0-120-53.832-120-120v-704c0-66.168 53.832-120 120-120h784c66.168 0 120 53.832 120 120v704c0 66.168-53.832 120-120 120zM944 56c0-22.056-17.944-40-40-40h-784c-22.056 0-40 17.944-40 40v528h864v-528zM944 664h-864v96c0 22.056 17.944 40 40 40h48v-80h80v80h528v-80h80v80h48c22.056 0 40-17.944 40-40v-96zM152 500h80v-80h-80v80zM312 500h80v-80h-80v80zM472 500h80v-80h-80v80zM632 500h80v-80h-80v80zM792 500h80v-80h-80v80zM152 340h80v-80h-80v80zM312 340h80v-80h-80v80zM472 340h80v-80h-80v80zM632 340h80v-80h-80v80zM152 180h80v-80h-80v80zM312 180h80v-80h-80v80zM472 180h80v-80h-80v80zM632 180h80v-80h-80v80zM792 340h80v-80h-80v80z" />
<glyph unicode="&#xe926;" glyph-name="technical-support" d="M221.488 79.814c-8.837 0-16-7.163-16-16v0-34.668c0.028-24.22 19.656-43.847 43.873-43.874h307.923c28.922-30.371 69.664-49.259 114.818-49.259 87.506 0 158.444 70.938 158.444 158.444 0 45.989-19.594 87.402-50.888 116.347l-0.105 0.096c0.162 0.838 0.257 1.806 0.264 2.794v0.006c0.060 36.98 0.544 74.42 1.442 111.276q0.014 0.654-0.022 1.304c-2.418 42.184-9.868 66.6-25.714 84.246s-38.974 26.722-73.508 36.362c-68.42 19.102-98.634 26.652-113.072 29.706l-8.888 33.17c37.654 19.332 66.216 51.906 79.88 91.43l0.342 1.136h6c0.015 0 0.033 0 0.051 0 32.659 0 59.134 26.475 59.134 59.134 0 16.859-7.055 32.071-18.374 42.843l-0.025 0.023c0.308 0.72 0.589 1.58 0.797 2.469l0.021 0.109c2.622 11.866 4.894 24.276 6.748 36.884 0.562 3.8 1.114 7.362 1.638 10.732 4.886 31.476 7.836 50.476-11.066 86.076-38.625 71.585-113.082 119.407-198.709 119.407-98.336 0-181.94-63.071-212.567-150.968l-0.479-1.579c-0.257-0.721-0.481-1.585-0.631-2.474l-0.013-0.094c-5.774-35.26-0.548-72.128 15.48-109.616-6.648-9.43-10.625-21.157-10.625-33.814 0-31.19 24.154-56.738 54.778-58.959l0.192-0.011c14.225-41.245 43.404-74.21 80.901-93.055l0.933-0.425-8.686-32.422c-14.44-3.056-44.654-10.6-113.068-29.706-34.538-9.64-57.64-18.68-73.51-36.362s-23.298-42.062-25.716-84.246q-0.032-0.65-0.022-1.304c1.024-42.034 1.508-84.692 1.44-126.8 0-0.007 0-0.016 0-0.024 0-8.837 7.163-16 16-16 0 0 0 0 0 0h26.060v-102.342zM249.364 17.272c-6.555 0.007-11.868 5.319-11.876 11.873v18.669h283c3.675-11.713 8.134-21.824 13.551-31.317l-0.407 0.775zM747.636-6.846l-37.492 37.492c-2.895 2.895-6.895 4.685-11.312 4.685-1.895 0-3.713-0.329-5.399-0.934l0.112 0.035c-6.416-2.333-13.823-3.681-21.544-3.681-33.131 0-60.462 24.833-64.394 56.902l-0.031 0.314 26.446-26.448c2.896-2.896 6.896-4.687 11.315-4.687 1.473 0 2.899 0.199 4.254 0.572l-0.112-0.026 39.090 10.474c5.53 1.517 9.797 5.784 11.288 11.202l0.026 0.112 10.476 39.092c0.346 1.242 0.545 2.667 0.545 4.14 0 4.419-1.791 8.419-4.687 11.314l-26.448 26.448c32.382-3.964 57.215-31.295 57.215-64.426 0-7.721-1.349-15.128-3.824-21.997l0.142 0.452c-0.57-1.575-0.899-3.393-0.899-5.288 0-4.418 1.79-8.417 4.685-11.312l37.294-37.292c-7.632-10.433-16.458-19.385-26.422-26.909l-0.322-0.233zM798.544 94.554c0-0.018 0-0.039 0-0.061 0-16.122-3.031-31.537-8.554-45.705l0.294 0.857-23.902 23.9c1.633 6.662 2.57 14.311 2.57 22.178 0 53.556-43.416 96.972-96.972 96.972-11.504 0-22.54-2.003-32.779-5.68l0.676 0.212c-6.288-2.252-10.706-8.159-10.706-15.099 0-4.418 1.791-8.418 4.686-11.313l43.2-43.2-5.69-21.246-21.248-5.694-43.2 43.2c-2.895 2.895-6.895 4.686-11.314 4.686-6.941 0-12.85-4.42-15.065-10.599l-0.035-0.112c-3.466-9.564-5.47-20.601-5.47-32.107 0-53.556 43.416-96.972 96.972-96.972 7.872 0 15.525 0.938 22.854 2.708l-0.662-0.135 24.4-24.414c-13.8-5.624-29.812-8.888-46.586-8.888-69.879 0-126.528 56.649-126.528 126.528s56.649 126.528 126.528 126.528c69.879 0 126.528-56.649 126.528-126.528 0-0.008 0-0.017 0-0.025v0.001zM749.25 325.092c-0.732-30.268-1.172-60.914-1.346-91.386-3.306 1.812-6.702 3.476-10.146 5.054v107.568c-0.030 24.219-19.655 43.844-43.871 43.872h-120.313l31.2 43.866c0.144 0.2 0.266 0.418 0.4 0.626 16.97-4.48 39.186-10.52 68.238-18.632 58.898-16.44 72.042-26.136 75.838-90.968zM571.944 443.124l-29.68-41.734-24.644 16.4 42.126 28.036c2.924-0.574 6.882-1.442 12.198-2.702zM501.318 390.2h-25.158l12.58 8.37zM647.662 634.4c0.814 6.105 1.279 13.163 1.279 20.33 0 12.027-1.309 23.748-3.791 35.029l0.199-1.075h0.93c14.994-0.008 27.146-12.165 27.146-27.16 0-14.508-11.376-26.36-25.694-27.121l-0.068-0.003zM304.174 798.416c27.049 76.086 98.434 129.584 182.314 129.584 73.447 0 137.314-41.018 169.943-101.396l0.505-1.023c13.912-26.2 12.222-37.078 7.71-66.164-0.534-3.446-1.1-7.088-1.674-10.976-1.448-9.844-3.178-19.528-5.124-28.904-3.478 0.725-7.475 1.141-11.569 1.142h-10.801c-19.1 63.304-40.578 96.036-67.418 102.824-11.642 2.946-29.8 2.136-50.164-18.454-0.901-0.908-1.695-1.925-2.36-3.028l-0.040-0.072c-31.176-52.682-86.8-77.854-165.288-74.814-0.184 0.008-0.4 0.012-0.618 0.012-5.234 0-9.877-2.526-12.778-6.426l-0.030-0.042c-0.004 0-0.008 0-0.013 0-8.104 0-15.825-1.639-22.85-4.605l0.386 0.145c-10.744 28.38-14.17 55.98-10.132 82.196zM309.656 661.502c0.013 11.136 6.713 20.704 16.299 24.906l0.175 0.068c-1.681-8.88-2.643-19.094-2.643-29.534 0-6.944 0.425-13.788 1.252-20.508l-0.081 0.806c-8.955 4.561-14.986 13.705-15.002 24.26v0.002zM360.94 694.892h2.046c83.010 0 143.176 29.884 178.98 88.954 7.242 6.968 13.37 9.874 18.256 8.642 5.312-1.344 24.328-11.502 46.056-85.822 0.201-0.685 0.405-1.245 0.639-1.79l-0.039 0.102c6.382-14.861 10.094-32.158 10.094-50.322 0-72.067-58.421-130.488-130.488-130.488-30.063 0-57.751 10.166-79.815 27.249l0.299-0.223c-43.51 33.464-61.568 91.248-46.028 143.698zM486.52 492.172c15.496 0.009 30.481 2.179 44.676 6.224l-1.15-0.28 7.644-28.528-48.952-32.576-51.294 34.136 7.114 26.546c12.584-3.497 27.036-5.512 41.956-5.522h0.006zM417.12 446.234l42.74-28.434-24.648-16.4-30.074 42.28c5.474 1.274 9.322 2.078 11.986 2.554zM226.898 214.156c-0.062 36.928-0.542 74.164-1.432 110.934 3.8 64.832 16.938 74.532 75.842 90.974 30.384 8.482 53.276 14.696 70.524 19.232l32.070-45.096h-123.070c-24.219-0.028-43.846-19.655-43.874-43.871v-132.175zM268.958 346.328c0.009 6.554 5.32 11.865 11.873 11.874h413.053c6.555-0.008 11.866-5.319 11.874-11.873v-96.885c-10.169 2.323-21.846 3.654-33.834 3.654-87.525 0-158.478-70.953-158.478-158.478 0-0.025 0-0.050 0-0.076v0.004c0-4.97 0.26-9.878 0.708-14.734h-245.2z" />
<glyph unicode="&#xe927;" glyph-name="star" d="M229.193-43.294c-11.219 0-22.36 3.5-31.868 10.375-17.711 12.836-25.985 34.899-21.165 56.189l65.877 290.187-223.412 195.927c-16.422 14.336-22.696 37.040-15.954 57.814 6.742 20.735 25.087 35.415 46.806 37.423l295.601 26.837 116.87 273.499c8.617 20.094 28.243 33.071 50.048 33.071s41.431-12.977 50.048-33.024l116.87-273.546 295.554-26.837c21.766-1.961 40.11-16.688 46.853-37.423s0.508-43.478-15.914-57.814l-223.412-195.888 65.877-290.179c4.828-21.336-3.453-43.4-21.157-56.197-17.665-12.797-41.22-13.782-59.822-2.602l-254.897 152.324-254.897-152.41c-8.617-5.117-18.219-7.727-27.907-7.727zM511.998 182.462c9.688 0 19.282-2.602 27.907-7.719l240.561-143.879-62.173 273.89c-4.438 19.493 2.18 39.845 17.243 53.033l210.951 185.005-279.093 25.344c-20.094 1.836-37.376 14.469-45.228 32.985l-110.167 258.1-110.3-258.139c-7.766-18.391-25.048-31.024-45.095-32.86l-279.132-25.344 210.943-185.005c15.11-13.227 21.719-33.54 17.243-53.079l-62.127-273.882 240.561 143.832c8.617 5.117 18.219 7.719 27.907 7.719zM342.821 626.169s0-0.047-0.047-0.086zM681.088 626.294l0.047-0.086c0 0.047 0 0.047-0.047 0.086z" />
<glyph unicode="&#xe928;" glyph-name="team" d="M1009 157.572c8.286 0 15 6.716 15 15v22.988c0 41.468-26.46 78.048-65.852 91.028l-93.754 30.848v32.46c32.646 19.586 54.548 55.32 54.548 96.082v64.65c0 61.744-50.232 111.976-111.976 111.976-36.368 0-68.73-17.44-89.198-44.382-11.33 21.262-30.544 37.844-54.598 45.744l-93.744 30.864v32.46c32.646 19.586 54.548 55.32 54.548 96.082v64.652c0.002 61.744-50.23 111.976-111.974 111.976s-111.976-50.232-111.976-111.976v-64.65c0-40.762 21.902-76.496 54.548-96.082v-32.46l-93.734-30.862c-24.060-7.904-43.276-24.486-54.606-45.748-20.468 26.944-52.83 44.382-89.198 44.382-61.744 0-111.976-50.232-111.976-111.976v-64.65c0-40.762 21.902-76.496 54.548-96.082v-32.46l-93.762-30.85c-39.384-12.978-65.844-49.558-65.844-91.026v-22.988c0-8.284 6.714-15 15-15s15 6.716 15 15v22.988c0 28.488 18.178 53.618 45.226 62.532l87.822 28.898c8.026-22.050 29.194-37.838 53.984-37.838 24.788 0 45.956 15.79 53.982 37.838l87.81-28.894c19.248-6.344 34.162-20.956 41.060-39.474l-39.056-12.854c-39.394-12.964-65.862-49.54-65.862-91.010v-17.434h-180.112v37.53c0 8.284-6.714 15-15 15s-15-6.716-15-15v-37.53h-54.854v5.18c0 8.284-6.714 15-15 15s-15-6.716-15-15v-20.18c0-8.284 6.714-15 15-15h279.966v-116.32c0-8.284 6.714-15 15-15h404.066c8.286 0 15 6.716 15 15v20.036c0 8.284-6.714 15-15 15s-15-6.716-15-15v-5.040h-54.852v88.036c0 8.284-6.714 15-15 15s-15-6.716-15-15v-88.036h-204.36v88.036c0 8.284-6.714 15-15 15s-15-6.716-15-15v-88.036h-54.854v148.754c0 28.486 18.18 53.61 45.24 62.514l87.812 28.9c8.028-22.046 29.194-37.834 53.982-37.834s45.954 15.786 53.982 37.834l87.812-28.9c27.060-8.906 45.24-34.028 45.24-62.514v-73.684c0-8.284 6.714-15 15-15s15 6.716 15 15v26.25h279.966c8.286 0 15 6.716 15 15v20.18c0 8.284-6.714 15-15 15s-15-6.716-15-15v-5.18h-54.854v37.53c0 8.284-6.714 15-15 15s-15-6.716-15-15v-37.53h-180.114v17.434c0 41.472-26.468 78.046-65.862 91.010l-39.056 12.854c6.898 18.516 21.81 33.128 41.052 39.472l87.818 28.896c8.026-22.048 29.194-37.838 53.982-37.838 24.79 0 45.958 15.79 53.984 37.838l87.814-28.896c27.058-8.912 45.236-34.042 45.236-62.53v-22.988c0-8.284 6.714-15 15-15zM806.966 592.606c45.202 0 81.976-36.774 81.976-81.976v-64.65c0-45.202-36.776-81.976-81.976-81.976s-81.974 36.774-81.974 81.976v64.65c0 45.202 36.774 81.976 81.974 81.976zM430.024 783.374v64.65c0 45.202 36.774 81.976 81.976 81.976s81.976-36.774 81.976-81.976v-64.65c0-45.202-36.776-81.976-81.976-81.976s-81.976 36.774-81.976 81.976zM512 671.398c9.46 0 18.646 1.19 27.428 3.41v-30.434c-0.004-0.142-0.002-0.282 0-0.422-0.012-15.114-12.31-27.406-27.426-27.406s-27.416 12.292-27.426 27.406c0 0.142 0.002 0.282 0 0.422v30.434c8.778-2.218 17.964-3.41 27.424-3.41zM370.21 595.472l87.806 28.91c8.026-22.048 29.194-37.836 53.982-37.836s45.956 15.788 53.982 37.836l87.816-28.912c25.074-8.236 42.462-30.194 44.892-56.298-2.406-9.116-3.7-18.68-3.7-28.542v-64.65c0-3.8 0.194-7.556 0.566-11.26h-71.706c-2.576 59.476-51.752 107.074-111.852 107.074s-109.276-47.598-111.852-107.074h-71.706c0.372 3.704 0.566 7.46 0.566 11.26v64.65c0 9.862-1.294 19.424-3.7 28.542 2.434 26.102 19.824 48.060 44.906 56.3zM512 283.192c-45.202 0-81.976 36.774-81.976 81.976v64.65c0 45.202 36.776 81.976 81.976 81.976s81.976-36.774 81.976-81.976v-64.65c0-45.202-36.774-81.976-81.976-81.976zM135.056 445.98v64.65c0 45.202 36.776 81.976 81.976 81.976s81.974-36.774 81.974-81.976v-64.65c0-45.202-36.774-81.976-81.974-81.976s-81.976 36.774-81.976 81.976zM244.458 306.578c0-15.124-12.302-27.426-27.426-27.426s-27.428 12.304-27.428 27.426v30.836c8.78-2.22 17.966-3.41 27.428-3.41 9.46 0 18.646 1.19 27.426 3.41zM368.208 286.588l-93.748 30.848v32.462c20.978 12.586 37.496 31.848 46.638 54.822h78.926v-39.552c0-40.762 21.902-76.496 54.548-96.082v-32.466l-26.198-8.622c-9.854 27.486-31.756 49.226-60.166 58.59zM512 198.336c-15.124 0-27.428 12.304-27.428 27.428v0.182c0 0.030 0 0.060 0 0.088v30.566c8.78-2.22 17.966-3.41 27.428-3.41s18.646 1.19 27.428 3.41v-30.836c0-15.124-12.304-27.428-27.428-27.428zM655.786 286.586c-28.404-9.362-50.306-31.102-60.158-58.59l-26.2 8.622v32.466c32.646 19.586 54.548 55.32 54.548 96.082v39.554h78.926c9.142-22.976 25.66-42.238 46.638-54.822v-32.462zM806.966 279.15c-15.124 0-27.426 12.304-27.426 27.426v30.836c8.78-2.22 17.966-3.41 27.426-3.41s18.646 1.19 27.428 3.41v-30.836c0-15.122-12.304-27.426-27.428-27.426z" />
<glyph unicode="&#xe929;" glyph-name="folder" d="M933.2 561.8c-16.6 22.6-42.2 35.6-70.2 35.6h-21.2v57c0 48-39 87-87.2 87h-254.4c-14.6 0-28.6 5.8-39 16l-40 39.8c-16.4 16.4-38.2 25.4-61.4 25.4h-198.8c-48 0-87-39-87-87.2v-507.4c-0.6-19.4 5.2-38.6 17-54.6 16.8-22.8 42.6-36 71-36h611.8c38.2 0 71.6 24.6 83.2 61.2l89.4 285.8c8.2 26.6 3.4 54.8-13.2 77.4zM105.8 735.4c0 30.4 24.8 55.2 55 55.2h199c14.6 0 28.4-5.8 39-16l40-39.8c16.4-16.4 38.2-25.4 61.4-25.4h254.6c30.4 0 55.2-24.8 55.2-55v-57h-560c-38.2 0-71.6-24.6-83.2-61l-61.2-195.2v394.2zM915.6 493.8l-89.4-285.8c-7.2-23.2-28.4-38.6-52.6-38.6h-611.8c-18 0-34.4 8.4-45.2 22.8-10.6 14.6-13.8 32.8-8.4 50l89 284.6c7.2 23.2 28.4 38.6 52.6 38.6h613c17.8 0 34-8.2 44.4-22.4 10.8-14.4 13.8-32.2 8.4-49.2z" />
<glyph unicode="&#xe92a;" glyph-name="right-arrow-2" d="M843.042 475.733l-256 298.667c-7.821 8.464-18.978 13.746-31.369 13.746-23.564 0-42.667-19.103-42.667-42.667 0-10.073 3.491-19.332 9.329-26.631l-0.066 0.085 232.188-270.933-232.188-270.933c-5.772-7.214-9.263-16.472-9.263-26.546 0-23.564 19.103-42.667 42.667-42.667 12.391 0 23.548 5.282 31.343 13.717l0.026 0.029 256 298.667c6.381 7.403 10.267 17.115 10.267 27.733s-3.886 20.33-10.314 27.789l0.047-0.055zM245.73 774.4c-7.832 8.571-19.058 13.927-31.536 13.927-23.564 0-42.667-19.103-42.667-42.667 0-10.155 3.548-19.482 9.472-26.808l-0.063 0.081 232.209-270.933-232.209-270.933c-5.861-7.245-9.409-16.572-9.409-26.727 0-23.564 19.103-42.667 42.667-42.667 12.477 0 23.704 5.356 31.506 13.894l0.030 0.033 256 298.667c6.38 7.41 10.266 17.126 10.266 27.75s-3.885 20.341-10.313 27.806l0.047-0.056z" />
<glyph unicode="&#xe92b;" glyph-name="right-quote" d="M227.093 809.414c-125.218 0-227.077-101.859-227.077-227.078 0-120.797 94.797-219.874 213.906-226.718 2.062-22.266 0.515-82.875-57.563-167.187-4.39-6.36-3.594-14.938 1.859-20.39 23.766-23.766 38.454-38.734 48.734-49.203 13.454-13.688 19.595-19.938 28.579-28.094 3.046-2.765 6.89-4.155 10.75-4.155 3.749 0 7.483 1.312 10.499 3.922 101.203 88.062 213.626 270.016 197.36 492.984-9.531 130.906-105.016 225.922-227.048 225.922zM246.437 124.446c-4.358 4.296-9.328 9.358-16.656 16.813-8.906 9.077-21.125 21.515-39.656 40.109 70.485 108.61 57.171 185.968 51.344 197.062-2.766 5.266-8.438 8.813-14.376 8.813-107.562 0-195.077 87.515-195.077 195.093 0 107.563 87.515 195.078 195.077 195.078 104.782 0 186.845-82.531 195.141-196.234 18.281-250.782-130.765-413.61-175.797-456.734zM1022.407 583.492v0.016c-9.563 130.89-105.062 225.906-227.062 225.906-125.219 0-227.094-101.859-227.094-227.078 0-120.797 94.813-219.874 213.938-226.718 2.062-22.25 0.499-82.827-57.594-167.187-4.39-6.36-3.594-14.938 1.859-20.39 23.672-23.672 38.328-38.61 48.61-49.062 13.515-13.781 19.688-20.062 28.718-28.25 3.046-2.75 6.906-4.141 10.75-4.141 3.75 0 7.485 1.312 10.499 3.938 101.203 88.062 213.626 270.014 197.376 492.968zM814.687 124.446c-4.39 4.328-9.405 9.421-16.797 16.952-8.906 9.064-21.077 21.469-39.531 39.97 70.485 108.626 57.189 185.968 51.376 197.062-2.766 5.25-8.453 8.813-14.39 8.813-107.579 0-195.094 87.515-195.094 195.093 0 107.563 87.515 195.078 195.094 195.078 104.765 0 186.843-82.531 195.155-196.25v0.016c18.266-250.75-130.781-413.61-175.813-456.734z" />
<glyph unicode="&#xe92c;" glyph-name="support" d="M510.214 829.88c11.124 0 20.142 9.018 20.142 20.142v89.836c0 11.124-9.018 20.142-20.142 20.142s-20.142-9.018-20.142-20.142v-89.836c0.002-11.124 9.020-20.142 20.142-20.142zM1002.56 268.030l-35.582 35.482c-12.658 12.642-29.528 19.606-47.504 19.606-11.494 0-22.528-2.86-32.306-8.218l-67.052 66.972 3.266 3.262c27.202 27.256 27.192 71.546-0.002 98.71-9.718 9.736-21.844 16.228-35.062 18.96 1.82 6.282 2.778 12.862 2.778 19.596 0 18.71-7.268 36.254-20.424 49.356-9.72 9.736-21.844 16.228-35.062 18.96 1.82 6.282 2.778 12.86 2.778 19.596 0 18.712-7.268 36.254-20.446 49.376-9.952 9.94-22.186 16.232-35.032 18.91 6.872 23.694 1 50.352-17.64 69.024-15.516 15.45-36.57 22.090-56.86 19.938l-132.87 25.15c-20.264 3.844-45.57 6.386-61.544-8.184-1.008-0.92-2.036-1.978-3.048-3.156-24.768 9.028-53.656 3.652-73.49-16.16-13.158-13.142-20.406-30.678-20.406-49.378 0-6.736 0.954-13.314 2.772-19.598-13.204-2.73-25.314-9.214-35-18.918-13.184-13.13-20.454-30.646-20.468-49.324-0.006-6.752 0.952-13.352 2.78-19.652-13.21-2.724-25.328-9.196-35.044-18.9-13.184-13.17-20.444-30.716-20.444-49.406 0-14.316 4.274-27.954 12.194-39.474-10-3.39-19.16-9.032-26.83-16.694-27.22-27.186-27.23-71.478 0.018-98.774l3.254-3.24-67.060-66.938c-24.922 11.734-55.628 7.338-76.194-13.202l-35.604-35.504c-12.664-12.648-19.636-29.52-19.638-47.506 0-17.988 6.974-34.862 19.638-47.512l44.434-44.38c7.87-7.862 20.624-7.854 28.484 0.016 7.862 7.87 7.854 20.624-0.016 28.484l-44.434 44.38c-5.044 5.038-7.822 11.79-7.822 19.010 0 7.218 2.778 13.968 7.81 18.994l35.606 35.506c8.896 8.886 22.512 10.21 32.852 4.028 0.728-1.094 1.57-2.134 2.534-3.1 1.726-1.73 3.696-3.056 5.788-4.026l204.186-203.886c0.97-2.114 2.302-4.104 4.040-5.844 1.692-1.694 3.622-3.004 5.67-3.968 4.318-4.882 6.704-11.118 6.704-17.77 0-7.22-2.778-13.97-7.822-19.008l-35.57-35.528c-10.51-10.464-27.606-10.462-38.084-0.032l-44.434 44.438c-7.866 7.866-20.618 7.866-28.484 0s-7.866-20.618 0-28.484l44.466-44.47c13.088-13.034 30.276-19.548 47.472-19.548 17.2 0 34.408 6.524 47.512 19.57l35.592 35.55c12.664 12.65 19.638 29.522 19.638 47.512 0 12.838-3.57 25.098-10.208 35.67l75.472 75.38c0.080 0.082 0.16 0.164 0.242 0.246 8.642 8.934 32.708 7.262 55.982 5.646 16.536-1.15 34.972-2.428 52.984-0.352l82.648-82.55c-5.354-9.762-8.212-20.782-8.212-32.258 0-17.97 6.974-34.832 19.638-47.482l35.594-35.55c12.656-12.642 29.526-19.606 47.502-19.606 17.974 0 34.844 6.962 47.502 19.606l215.882 215.62c12.664 12.648 19.638 29.52 19.638 47.508-0.002 17.986-6.976 34.858-19.652 47.518zM468.040 753.13l87.374-16.538-52.298-52.278c-8.090 3.888-19.178 11.14-31.342 22.776-16.65 15.928-28.56 34.318-29.644 45.788-0.002 0.006-0.002 0.012-0.002 0.018 0 0.002-0.002 0.004-0.002 0.006-0.078 0.824-0.098 1.482-0.088 1.984 2.634 0.64 9.63 1.35 26.002-1.756zM365.924 736.708c10.204 10.194 26.056 11.37 37.586 3.562 6.534-27.396 29.904-52.226 40.418-62.286 7.792-7.456 32.794-29.81 58.030-35.954 3.414-4.894 5.272-10.728 5.272-16.884 0-7.93-3.050-15.344-8.608-20.896-5.542-5.552-12.968-8.608-20.912-8.608-7.946 0-15.372 3.056-20.94 8.634l-0.012 0.012-90.836 90.672c-5.538 5.53-8.588 12.944-8.588 20.872 0.002 7.93 3.052 15.344 8.59 20.876zM313.292 648.814c5.542 5.55 12.96 8.608 20.892 8.608 7.942 0 15.384-3.064 20.962-8.636l73.144-72.998c11.518-11.536 11.518-30.308 0.040-41.804-5.572-5.55-13.024-8.606-20.982-8.606s-15.41 3.056-20.958 8.582l-55.492 55.48c-0.086 0.086-0.18 0.166-0.268 0.254l-17.36 17.352c-5.57 5.564-8.636 12.992-8.63 20.916 0.008 7.898 3.064 15.288 8.652 20.852zM260.56 560.938c5.546 5.538 12.98 8.588 20.936 8.588 7.89 0 15.26-3.006 20.782-8.448l55.66-55.634c5.55-5.528 8.608-12.934 8.608-20.854 0-7.918-3.058-15.324-8.63-20.874-5.544-5.536-12.97-8.586-20.912-8.586-7.954 0-15.404 3.058-20.956 8.586l-20.178 20.154c-0.004 0.006-0.010 0.010-0.014 0.014l-35.294 35.252c-5.564 5.558-8.628 12.982-8.628 20.902 0 7.918 3.064 15.344 8.626 20.9zM225.48 455.366c5.57 5.564 13.014 8.628 20.96 8.628 7.944 0 15.386-3.062 20.954-8.622l20.206-20.182c5.552-5.528 8.608-12.934 8.608-20.854s-3.058-15.324-8.65-20.896c-5.542-5.55-12.968-8.608-20.912-8.608-7.946 0-15.372 3.056-20.954 8.648l-2.53 2.52c-0.034 0.034-0.060 0.070-0.092 0.102-0.038 0.036-0.078 0.068-0.116 0.104l-17.454 17.386c-11.518 11.542-11.528 30.28-0.020 41.774zM635.948 226.45c-7.862 7.872-20.616 7.878-28.484 0.018l-17.92-17.898c-17.028-17.028-47.882-14.884-77.72-12.814-32.402 2.252-65.908 4.576-87.59-17.684l-74.19-74.1-185.526 185.254 65.656 65.538c10.852-6.652 23.374-10.218 36.476-10.218 18.718 0 36.27 7.256 49.38 20.39 13.198 13.144 20.468 30.686 20.468 49.398 0 0.174-0.012 0.346-0.012 0.52 0.174-0.002 0.348-0.012 0.522-0.012 18.692 0 36.23 7.234 49.358 20.346 13.198 13.144 20.468 30.688 20.468 49.398 0 0.174-0.012 0.346-0.012 0.52 0.176 0 0.352-0.012 0.53-0.012 18.686 0 36.234 7.226 49.45 20.388 13.72 13.742 20.506 31.834 20.376 49.888 0.18-0.002 0.36-0.012 0.54-0.012 18.718 0.002 36.268 7.256 49.398 20.41 13.158 13.142 20.406 30.678 20.406 49.378 0 13.078-3.556 25.58-10.186 36.41l57.546 57.522c4.288 4.27 9.576 6.95 15.118 8.056 0.6 0.064 1.192 0.16 1.778 0.276 8.892 1.226 18.23-1.518 25.030-8.29 11.518-11.538 11.518-30.31 0.042-41.806l-17.526-17.454c-0.058-0.058-0.12-0.11-0.178-0.168l-20.186-20.152c-7.872-7.86-7.88-20.614-0.018-28.484 7.864-7.872 20.616-7.878 28.484-0.018l17.596 17.572c0.004 0.004 0.008 0.008 0.012 0.012l2.66 2.65c11.55 11.444 30.262 11.42 41.8-0.102 5.552-5.528 8.61-12.934 8.61-20.854 0-7.918-3.058-15.324-8.654-20.896l-17.626-17.662c-0.002-0.002-0.004-0.004-0.006-0.008l-20.184-20.102c-7.882-7.85-7.908-20.604-0.058-28.484 7.85-7.882 20.602-7.906 28.484-0.058l20.276 20.194c5.542 5.552 12.968 8.608 20.912 8.608 7.946 0 15.374-3.056 20.956-8.648 5.552-5.53 8.608-12.936 8.608-20.856 0-7.918-3.056-15.324-8.64-20.884l-35.14-35.154c-7.864-7.868-7.862-20.62 0.004-28.484 3.934-3.932 9.086-5.896 14.24-5.896 5.156 0 10.312 1.968 14.244 5.902l17.222 17.228c0.098 0.094 0.204 0.176 0.302 0.274 5.542 5.552 12.968 8.608 20.912 8.608 7.946 0 15.372-3.056 20.934-8.628 11.506-11.494 11.496-30.234 0-41.75l-17.51-17.49c-0.006-0.006-0.014-0.012-0.020-0.018s-0.012-0.014-0.018-0.020l-27.792-27.758c-7.87-7.862-7.878-20.616-0.018-28.486 3.934-3.938 9.094-5.908 14.252-5.908 5.15 0 10.302 1.964 14.234 5.89l13.594 13.578 65.154-65.078-185.51-185.284-66.468 66.388c4.634 2.98 9.068 6.484 13.23 10.646l17.91 17.888c7.874 7.858 7.882 20.612 0.020 28.482zM974.104 201.506l-215.882-215.62c-5.050-5.044-11.81-7.822-19.034-7.822s-13.984 2.778-19.036 7.824l-35.594 35.55c-5.044 5.036-7.822 11.776-7.822 18.978 0 7.2 2.778 13.94 7.822 18.978l215.882 215.62c5.052 5.046 11.81 7.824 19.036 7.824 7.224 0 13.984-2.778 19.048-7.836l35.582-35.482c5.044-5.038 7.822-11.786 7.822-19.006-0.002-7.222-2.78-13.972-7.824-19.008zM242.756 846.86c3.932-3.924 9.080-5.884 14.228-5.884 5.16 0 10.322 1.972 14.256 5.914 7.858 7.874 7.846 20.626-0.028 28.484l-73.396 73.25c-7.872 7.858-20.626 7.848-28.484-0.028-7.858-7.874-7.846-20.626 0.028-28.484zM763.444 840.976c5.15 0 10.302 1.964 14.234 5.89l73.34 73.252c7.87 7.86 7.878 20.614 0.016 28.484-7.86 7.87-20.612 7.878-28.484 0.016l-73.34-73.252c-7.87-7.86-7.878-20.614-0.016-28.484 3.934-3.938 9.092-5.906 14.25-5.906zM125.638 93.592c-7.798-7.932-7.69-20.686 0.244-28.484l0.058-0.056c3.914-3.848 8.996-5.764 14.076-5.764 5.214 0 10.428 2.018 14.378 6.036 7.798 7.932 7.66 20.714-0.272 28.512-7.93 7.798-20.682 7.688-28.484-0.244zM685.212 255.466c3.064 0 6.172 0.698 9.090 2.168 9.932 5.010 13.922 17.122 8.914 27.054-5.010 9.932-17.124 13.924-27.054 8.914l-0.112-0.056c-9.932-5.010-13.866-17.094-8.858-27.026 3.536-7.016 10.648-11.054 18.020-11.054z" />
<glyph unicode="&#xe92d;" glyph-name="idea" d="M323.842 895.158c8.29 0 15.010 6.72 15.010 15.010v28.962c0 8.29-6.72 15.010-15.010 15.010s-15.010-6.72-15.010-15.010v-28.962c0-8.288 6.72-15.010 15.010-15.010zM525.060 820.604l20.478 20.48c5.862 5.862 5.862 15.366 0 21.226-5.862 5.864-15.366 5.862-21.226 0l-20.478-20.48c-5.862-5.862-5.862-15.366 0-21.226 2.93-2.932 6.772-4.396 10.614-4.396 3.84 0 7.68 1.466 10.612 4.396zM122.624 460.624l-20.48-20.478c-5.862-5.862-5.862-15.364 0-21.226 2.93-2.932 6.772-4.396 10.614-4.396s7.682 1.466 10.614 4.396l20.48 20.478c5.862 5.862 5.862 15.364 0 21.226s-15.366 5.862-21.228 0zM622.356 625.604c8.29 0 15.010 6.72 15.010 15.010s-6.72 15.010-15.010 15.010h-28.96c-8.29 0-15.010-6.72-15.010-15.010s6.72-15.010 15.010-15.010zM54.288 655.624h-28.962c-8.29 0-15.010-6.72-15.010-15.010s6.72-15.010 15.010-15.010h28.962c8.29 0 15.010 6.72 15.010 15.010s-6.722 15.010-15.010 15.010zM525.060 460.624c-5.862 5.862-15.366 5.862-21.226 0-5.862-5.862-5.862-15.366 0-21.226l18.766-18.766c2.93-2.93 6.772-4.396 10.614-4.396s7.682 1.466 10.614 4.396c5.862 5.862 5.862 15.366 0 21.226zM122.624 820.604c2.93-2.93 6.772-4.396 10.614-4.396s7.682 1.466 10.614 4.396c5.862 5.862 5.862 15.366 0 21.226l-20.48 20.48c-5.862 5.862-15.366 5.862-21.226 0-5.862-5.862-5.862-15.366 0-21.226zM275.782 529.44c1.18 1.178 2.558 1.452 4.1 0.816 1.542-0.64 2.322-1.808 2.322-3.476 0-19.852 16.15-36.002 36.002-36.002h11.27c19.852 0 36.002 16.15 36.002 36.002 0 1.668 0.782 2.838 2.322 3.476 1.542 0.636 2.92 0.364 4.1-0.816 6.8-6.8 15.84-10.544 25.456-10.544s18.658 3.744 25.458 10.544l7.97 7.97c6.8 6.8 10.544 15.84 10.544 25.456s-3.744 18.658-10.544 25.458c-1.18 1.18-1.454 2.56-0.816 4.1 0.64 1.542 1.808 2.322 3.476 2.322 19.852 0 36.002 16.15 36.002 36.002v11.27c0 19.852-16.152 36.002-36.002 36.002-1.668 0-2.836 0.782-3.476 2.322-0.638 1.542-0.364 2.92 0.816 4.1 6.8 6.8 10.544 15.84 10.544 25.458 0 9.616-3.744 18.658-10.544 25.456l-7.968 7.97c-6.8 6.8-15.842 10.544-25.458 10.544s-18.658-3.744-25.456-10.544c-1.182-1.178-2.56-1.452-4.1-0.816-1.542 0.64-2.322 1.808-2.322 3.476 0 19.852-16.15 36.002-36.002 36.002h-11.27c-19.852 0-36.002-16.15-36.002-36.002 0-1.668-0.782-2.838-2.322-3.476-1.542-0.638-2.92-0.362-4.1 0.816-6.8 6.8-15.842 10.544-25.456 10.544-9.616 0-18.658-3.744-25.458-10.546l-7.968-7.968c-6.8-6.8-10.544-15.842-10.544-25.458s3.744-18.658 10.544-25.458c1.18-1.18 1.454-2.56 0.814-4.1-0.638-1.542-1.808-2.322-3.476-2.322-19.852 0-36.002-16.15-36.002-36.002v-11.27c0-19.852 16.15-36.002 36.002-36.002 1.668 0 2.838-0.782 3.476-2.322 0.64-1.542 0.364-2.92-0.814-4.1-6.8-6.8-10.544-15.842-10.544-25.458s3.744-18.658 10.544-25.456l7.97-7.97c14.034-14.034 36.874-14.034 50.91 0.002zM214.238 624.766c-3.3 0-5.982 2.684-5.982 5.982v11.27c0 3.3 2.684 5.982 5.982 5.982 13.712 0 25.964 8.186 31.21 20.854 5.248 12.668 2.372 27.12-7.324 36.816-1.524 1.524-1.752 3.304-1.752 4.23s0.226 2.704 1.754 4.232l7.968 7.968c2.332 2.334 6.128 2.336 8.46 0 9.696-9.696 24.148-12.568 36.814-7.324 12.67 5.246 20.856 17.498 20.856 31.21 0 3.3 2.684 5.982 5.982 5.982h11.27c3.3 0 5.982-2.684 5.982-5.982 0-13.712 8.186-25.964 20.854-31.21 12.668-5.25 27.118-2.374 36.816 7.324 1.524 1.524 3.304 1.752 4.23 1.752s2.704-0.226 4.23-1.752l7.97-7.97c2.332-2.332 2.332-6.128 0-8.46-9.696-9.696-12.57-24.146-7.324-36.814 5.248-12.668 17.498-20.854 31.21-20.854 3.3 0 5.984-2.684 5.984-5.982v-11.27c0-3.3-2.684-5.982-5.984-5.982-13.712 0-25.962-8.186-31.21-20.854s-2.374-27.12 7.324-36.814c2.332-2.332 2.332-6.128 0-8.46l-7.97-7.97c-2.334-2.332-6.128-2.332-8.46 0-9.696 9.696-24.15 12.57-36.814 7.324-12.668-5.248-20.854-17.498-20.854-31.21 0-3.3-2.684-5.982-5.982-5.982h-11.27c-3.3 0-5.982 2.684-5.982 5.982 0 13.714-8.186 25.964-20.856 31.21-4.204 1.742-8.604 2.588-12.962 2.588-8.774 0-17.374-3.432-23.852-9.91-2.334-2.334-6.128-2.332-8.46 0l-7.97 7.97c-1.524 1.524-1.752 3.304-1.752 4.23s0.226 2.704 1.752 4.23c9.696 9.696 12.57 24.146 7.324 36.814-5.25 12.664-17.5 20.85-31.212 20.85zM323.842 584.278c28.73 0 52.106 23.374 52.106 52.106s-23.374 52.106-52.106 52.106c-28.73 0-52.106-23.374-52.106-52.106s23.374-52.106 52.106-52.106zM323.842 658.47c12.178 0 22.086-9.908 22.086-22.086s-9.908-22.086-22.086-22.086-22.086 9.908-22.086 22.086 9.908 22.086 22.086 22.086zM1007.958 402.494l-44.774 93.988c-1.722 3.616-2.658 7.644-2.708 11.648l-0.856 68.848c0 210.476-169.45 382.3-377.73 383.020-0.44 0.002-0.88 0.002-1.322 0.002-67.704 0-134.122-18.056-192.154-52.254-7.142-4.208-9.52-13.41-5.312-20.552s13.41-9.52 20.552-5.312c53.418 31.478 114.566 48.098 176.914 48.098 0.406 0 0.812 0 1.218-0.002 191.784-0.664 347.814-159.020 347.816-353.186l0.856-69.032c0.102-8.314 2.048-16.676 5.624-24.186l44.774-93.988c8.98-18.852-4.874-40.25-25.264-40.252-32.106 0.376-58.462-25.608-58.464-57.898l-0.006-121.236c-0.002-29-25.754-51.194-54.402-47.004l-104.796 15.37c-31.782 4.662-60.288-20.002-60.288-52.092v-33.164l-317.070 29.318v49.738c0 8.29-6.72 15.010-15.010 15.010s-15.010-6.72-15.010-15.010v-46.962l-5.514 0.51c-29.566 2.738-55.13-20.582-55.13-50.268v-48.788c0-27.81 22.624-50.456 50.434-50.482l394.484-0.376c27.878 0 50.48 22.558 50.48 50.482v12.694c0 26.242-19.704 47.852-45.834 50.268l-11.812 1.092v35.94c0 13.824 12.212 24.39 25.912 22.39l104.796-15.37c46.804-6.868 88.776 29.458 88.778 76.704l0.006 121.236c0.002 15.448 12.554 28.060 28.3 27.88 42.712-0.002 70.916 44.544 52.512 83.178zM735.28-0.826v-12.694c0-11.3-9.144-20.462-20.462-20.462-0.006 0-0.014 0-0.020 0l-394.436 0.378c-11.272 0.010-20.442 9.19-20.442 20.462v48.788c0 11.962 10.246 21.498 22.346 20.374l21.746-2.010c0.006 0 0.010 0 0.016-0.002l372.674-34.46c10.592-0.978 18.578-9.736 18.578-20.374zM294.26 187.528h63.38c39.538 0 72.142 30.224 75.936 68.78 11.962 5.328 20.334 17.308 20.334 31.224v72.462c0 11.824-6.036 22.26-15.186 28.402 11.256 39.072 30.818 75.912 57.080 107.21 123.74 147.456 15.696 371.022-175.158 368.488-188.142-2.622-289.054-223.296-169.678-367.392 26.612-32.124 46.428-69.38 57.82-108.422-9.052-6.156-15.012-16.536-15.012-28.284v-72.462c0-15.572 10.476-28.718 24.742-32.83 4.53-37.784 36.758-67.176 75.742-67.176zM227.96 283.366c-2.298 0-4.166 1.868-4.166 4.166v72.462c0 2.298 1.868 4.166 4.166 4.166h191.734c0.050-0.004 0.1-0.010 0.15-0.012 2.238-0.068 4.042-1.9 4.042-4.154v-72.462c0-2.298-1.87-4.166-4.166-4.166zM357.64 217.548h-63.38c-21.916 0-40.31 15.314-45.076 35.8h153.532c-4.766-20.486-23.16-35.8-45.076-35.8zM321.064 834.078c166.474 2.196 257.91-192.656 151.744-319.176-29.514-35.17-51.358-76.698-63.65-120.722h-170.83c-12.414 43.872-34.464 85.724-64.244 121.672-103.436 124.858-15.864 315.954 146.98 318.226z" />
<glyph unicode="&#xe92e;" glyph-name="transparency" d="M1007.248 805.146l-143.336 143.338c-2.25 2.252-5.302 3.516-8.486 3.516h-552.074c-6.626 0-12-5.374-12-12v-515.632c-44.144-3.024-87.43-21.318-121.1-54.99-65.608-65.608-72.988-167.676-22.24-241.548l-58.976-58.976c-1.73 0.41-3.514 0.644-5.34 0.644-6.146 0-11.914-2.384-16.24-6.714l-47.5-47.502c-4.33-4.328-6.716-10.096-6.716-16.24s2.384-11.91 6.712-16.24l32.084-32.084c4.33-4.33 10.098-6.714 16.24-6.714s11.912 2.384 16.24 6.714l47.504 47.504c4.33 4.328 6.714 10.096 6.714 16.24 0 1.826-0.236 3.61-0.646 5.34l58.978 58.974c31.91-21.92 69.060-33.016 106.286-33.226v-0.114h695.412c6.626 0 12 5.374 12 12v739.226c0 3.184-1.264 6.234-3.514 8.484zM867.426 911.028l102.366-102.368h-102.366v102.37zM187.222 352.408c32.314 32.314 74.762 48.472 117.21 48.472s84.896-16.158 117.21-48.472c64.63-64.63 64.63-169.792 0-234.424-64.626-64.628-169.79-64.63-234.42 0s-64.63 169.792 0 234.424zM463.336 338.924v35.578h66.356v-162.424h-37.044c5.312 43.632-4.436 88.756-29.312 126.846zM68.274-31.586l-30.624 30.624 46.042 46.044 30.624-30.624-46.042-46.042zM123.532 39.184l-15.112 15.114 54.5 54.5c2.364-2.642 4.794-5.246 7.332-7.782s5.14-4.968 7.782-7.332zM396.726 69.436c15.014 8.352 29.15 18.842 41.886 31.58 24.932 24.932 41.428 55.142 49.556 87.062h53.522c6.626 0 12 5.374 12 12v186.424c0 6.626-5.374 12-12 12h-90.356c-6.626 0-12-5.374-12-12v-17.886c-0.248 0.25-0.474 0.512-0.722 0.76-34.222 34.222-78.37 52.58-123.262 55.144v503.48h528.074v-131.338c0-6.626 5.374-12 12-12h131.336v-715.226zM850.778 542.348h-90.354c-6.626 0-12-5.374-12-12v-330.27c0-6.626 5.374-12 12-12h90.354c6.626 0 12 5.374 12 12v330.27c0 6.626-5.374 12-12 12zM838.778 212.078h-66.354v306.27h66.354zM696.236 471.698h-90.356c-6.626 0-12-5.374-12-12v-259.62c0-6.626 5.374-12 12-12h90.356c6.626 0 12 5.374 12 12v259.62c0 6.626-5.374 12-12 12zM684.236 212.078h-66.356v235.62h66.356zM304.434 94.344c37.624 0 72.994 14.652 99.596 41.256s41.254 61.974 41.254 99.596-14.652 72.994-41.254 99.598c-54.918 54.918-144.276 54.918-199.194 0-54.916-54.918-54.916-144.276 0-199.194 26.604-26.606 61.974-41.256 99.598-41.256zM221.808 317.822c22.784 22.784 52.7 34.17 82.626 34.17s59.848-11.392 82.626-34.168c45.552-45.562 45.558-119.698 0-165.256-22.070-22.070-51.414-34.224-82.626-34.224s-60.556 12.154-82.626 34.224c-45.56 45.562-45.56 119.694 0 165.254zM862.778 708.38v-39.636c0-6.626-5.374-12-12-12s-12 5.374-12 12v10.674l-123.342-123.34c-3.842-3.842-9.784-4.622-14.486-1.908l-95.682 55.242-145.448-145.446c-2.344-2.342-5.416-3.514-8.486-3.514s-6.142 1.172-8.486 3.516c-4.686 4.686-4.686 12.284 0 16.97l151.958 151.956c3.84 3.84 9.78 4.622 14.486 1.906l95.682-55.242 116.834 116.832h-10.678c-6.626 0-12 5.374-12 12s5.374 12 12 12h39.644c0.768 0 1.514-0.080 2.242-0.216 0.024-0.004 0.046-0.006 0.070-0.010 0.734-0.144 1.444-0.358 2.124-0.63 0.038-0.016 0.078-0.026 0.116-0.042 0.696-0.286 1.356-0.636 1.98-1.042 0.034-0.022 0.068-0.040 0.102-0.062 1.332-0.886 2.478-2.030 3.364-3.362 0.028-0.042 0.050-0.086 0.078-0.128 0.398-0.614 0.742-1.262 1.024-1.946 0.022-0.054 0.038-0.106 0.058-0.16 0.262-0.666 0.474-1.356 0.614-2.074 0.008-0.044 0.012-0.088 0.020-0.134 0.13-0.708 0.208-1.434 0.208-2.18v-0.026zM391.896 796.664c0 6.626 5.374 12 12 12h150c6.628 0 12-5.376 12-12.002s-5.374-12-12-12h-150c-6.628 0-12 5.376-12 12.002zM391.896 742.676c0 6.626 5.374 12 12 12h339.6c6.626 0 12-5.376 12-12.002s-5.374-12-12-12h-339.6c-6.626 0-12 5.376-12 12.002zM743.496 676.686h-339.6c-6.626 0-12 5.374-12 12s5.374 12 12 12h339.6c6.626 0 12-5.374 12-12s-5.374-12-12-12zM402.448 226.646c2.29 2.256 3.578 5.336 3.578 8.548s-1.29 6.292-3.578 8.548c-26.3 25.908-61.108 40.178-98.016 40.178s-71.714-14.27-98.014-40.178c-2.29-2.256-3.578-5.336-3.578-8.548s1.29-6.292 3.578-8.548c26.298-25.908 61.106-40.178 98.014-40.178s71.716 14.27 98.016 40.178zM304.434 259.918c13.632 0 24.722-11.090 24.722-24.722s-11.090-24.722-24.722-24.722-24.722 11.090-24.722 24.722 11.090 24.722 24.722 24.722zM350.752 220.104c1.554 4.754 2.404 9.824 2.404 15.090s-0.85 10.336-2.404 15.090c8.94-3.91 17.396-8.96 25.168-15.090-7.772-6.132-16.226-11.18-25.168-15.090zM258.116 250.286c-1.554-4.754-2.404-9.824-2.404-15.090s0.85-10.336 2.404-15.090c-8.94 3.91-17.396 8.958-25.168 15.090 7.772 6.132 16.226 11.182 25.168 15.090z" />
<glyph unicode="&#xe92f;" glyph-name="add-friend" d="M490.104 918.492c-148.974 0-270.5-121.943-270.5-270.917 0-91.067 45.568-171.755 114.917-220.834-161.752-64.812-276.5-222.964-276.5-407.499 0.53-23.159 19.43-41.73 42.667-41.73s42.136 18.571 42.666 41.681l0.001 0.049c0 195.842 157.907 353.667 353.75 353.667 68.363 0 131.821-19.488 185.833-52.917 6.416-4.043 14.22-6.442 22.584-6.442 23.642 0 42.807 19.165 42.807 42.807 0 15.347-8.076 28.807-20.21 36.363l-0.181 0.105c-24.338 15.062-50.759 26.856-78 37.001 67.111 49.331 111.083 128.5 111.083 217.749 0 148.973-121.943 270.917-270.917 270.917zM490.104 833.076c102.856 0 185.583-82.644 185.583-185.5s-82.727-185.167-185.583-185.167-185.167 82.31-185.167 185.167c0 102.856 82.31 185.5 185.167 185.5zM921.938 320.992c-14.523-0.432-27.176-8.056-34.566-19.418l-0.101-0.165-147.083-220.416-92.25 61.75c-6.707 4.564-14.986 7.287-23.901 7.287-23.659 0-42.839-19.18-42.839-42.839 0-14.837 7.543-27.912 19.003-35.6l0.154-0.097 128.25-85.334c6.634-4.457 14.802-7.113 23.589-7.113 14.791 0 27.824 7.526 35.48 18.957l0.097 0.154 170.75 256.082c4.669 6.743 7.458 15.096 7.458 24.101 0 23.567-19.104 42.671-42.671 42.671-0.482 0-0.962-0.008-1.44-0.024l0.070 0.002z" />
<glyph unicode="&#xe930;" glyph-name="strategy" d="M999.732 723.792h-213.86v211.942c0 6.758-5.476 12.242-12.24 12.242h-523.25c-6.774 0-12.25-5.482-12.25-12.242v-211.942h-213.868c-6.76 0-12.236-5.484-12.236-12.242v-597.424c0-6.758 5.476-12.242 12.236-12.242h381.888v-51.844h-15.606c-31.628 0-57.364-25.734-57.364-57.368v-32.402c0-6.76 5.476-12.244 12.238-12.244h333.394c6.764 0 12.242 5.482 12.242 12.244v32.402c0 31.634-25.738 57.368-57.372 57.368h-15.602v51.844h381.646c6.764 0 12.24 5.484 12.24 12.242v597.422c0.004 6.758-5.472 12.244-12.236 12.244zM262.618 923.49h498.778v-545.578h-498.778zM238.132 699.304v-333.632c0-6.762 5.476-12.246 12.25-12.246h523.248c6.764 0 12.24 5.484 12.24 12.246v333.632h201.622v-453.884h-950.992v453.884zM666.578-7.33v-20.16h-308.918v20.16c0 18.132 14.748 32.884 32.886 32.884h243.14c17.838 0 32.892-15.058 32.892-32.884zM593.614 50.038h-162.988v51.844h162.988zM36.5 126.368v94.57h950.992v-94.57zM512.006 209.418c-19.724 0-35.772-16.046-35.772-35.77 0-19.72 16.046-35.762 35.772-35.762 19.852 0 35.998 16.042 35.998 35.762 0 19.724-16.146 35.77-35.998 35.77zM512.006 162.37c-6.22 0-11.288 5.060-11.288 11.278 0 6.224 5.066 11.284 11.288 11.284 6.24 0 11.522-5.166 11.522-11.284 0-6.116-5.282-11.278-11.522-11.278zM354.062 423.278c21.434 0 39.488 14.576 44.874 34.322h43.7c27 0 48.958 21.964 48.958 48.97v186.256c0 13.63 11.102 24.718 24.73 24.718h80.42c5.39-19.744 23.436-34.318 44.87-34.318 25.676 0 46.568 20.888 46.568 46.562 0 21.434-14.58 39.486-34.332 44.88v13.104l68.294 31.966c4.32 2.010 7.086 6.338 7.086 11.102s-2.766 9.090-7.086 11.1l-75.372 35.044c-0.050 0.024-0.11 0.024-0.16 0.050-0.85 0.384-1.746 0.676-2.692 0.862-0.176 0.030-0.352 0.024-0.532 0.050-0.578 0.088-1.162 0.176-1.778 0.176-0.164 0-0.316-0.040-0.492-0.048-0.294-0.010-0.592-0.054-0.898-0.088-0.656-0.076-1.304-0.196-1.922-0.374-0.286-0.080-0.554-0.16-0.828-0.256-0.73-0.268-1.414-0.592-2.070-0.98-0.114-0.070-0.254-0.102-0.372-0.174-0.032-0.018-0.058-0.054-0.090-0.078-0.786-0.51-1.508-1.112-2.156-1.788-0.144-0.162-0.27-0.336-0.41-0.508-0.466-0.536-0.88-1.108-1.244-1.724-0.152-0.248-0.286-0.496-0.418-0.754-0.304-0.61-0.544-1.236-0.75-1.898-0.080-0.25-0.164-0.492-0.234-0.75-0.21-0.904-0.356-1.84-0.356-2.818v-91.212c-15.834-4.33-28.296-16.798-32.628-32.638h-80.42c-27.136 0-49.204-22.076-49.204-49.206v-186.256c0-13.506-10.986-24.488-24.486-24.488h-43.71c-5.42 19.616-23.456 34.088-44.862 34.088-25.676 0-46.566-20.786-46.566-46.328 0.002-25.678 20.892-46.566 46.568-46.566zM653.85 814.858v31.842l34.106-15.856zM629.374 748.15v-18.36c0-6.76 5.478-12.244 12.24-12.244 6.766 0 12.236 5.484 12.236 12.244v18.258c5.898-4.012 9.85-10.774 9.85-18.258 0-12.176-9.908-22.078-22.086-22.078-12.17 0-22.082 9.902-22.082 22.078 0 7.652 3.914 14.398 9.842 18.36zM354.062 491.686c12.18 0 22.082-9.8 22.082-21.842 0-12.176-9.902-22.080-22.082-22.080-12.178 0-22.086 9.904-22.086 22.080 0 12.040 9.908 21.842 22.086 21.842zM663.718 567.038l-26.512-26.508 26.512-26.504c4.782-4.784 4.782-12.532 0-17.314-2.394-2.392-5.534-3.584-8.662-3.584-3.13 0-6.26 1.192-8.654 3.584l-26.512 26.506-26.504-26.506c-2.39-2.392-5.52-3.584-8.656-3.584-3.132 0-6.274 1.192-8.66 3.584-4.778 4.784-4.778 12.53 0 17.314l26.506 26.504-26.506 26.508c-4.778 4.784-4.778 12.532 0 17.316 4.782 4.776 12.542 4.776 17.316 0l26.504-26.506 26.512 26.506c4.786 4.776 12.538 4.776 17.316 0 4.782-4.784 4.782-12.532 0-17.316zM326.444 654.922l26.502 26.502-26.502 26.506c-4.784 4.784-4.784 12.532 0 17.31 4.784 4.788 12.538 4.784 17.316 0.004l26.5-26.51 26.508 26.51c4.79 4.78 12.542 4.782 17.318-0.004 4.782-4.78 4.782-12.528 0-17.31l-26.508-26.506 26.508-26.502c4.782-4.784 4.782-12.532 0-17.312-2.388-2.394-5.528-3.588-8.656-3.588-3.13 0-6.264 1.194-8.662 3.584l-26.508 26.506-26.5-26.506c-2.39-2.388-5.522-3.584-8.658-3.584-3.132 0-6.27 1.194-8.658 3.588-4.784 4.78-4.784 12.528 0 17.312zM453.416 797.016l26.51 26.506-26.51 26.506c-4.776 4.782-4.776 12.532 0 17.318 4.778 4.78 12.542 4.78 17.314 0l26.512-26.508 26.5 26.508c4.782 4.78 12.542 4.78 17.318 0 4.782-4.786 4.782-12.536 0-17.318l-26.496-26.506 26.496-26.506c4.782-4.786 4.782-12.534 0-17.316-2.388-2.39-5.526-3.588-8.654-3.588-3.136 0-6.272 1.198-8.664 3.588l-26.5 26.506-26.512-26.506c-2.386-2.39-5.524-3.588-8.66-3.588-3.126 0-6.262 1.198-8.654 3.588-4.776 4.782-4.776 12.53 0 17.316z" />
<glyph unicode="&#xe931;" glyph-name="customer-centricity" d="M566.080 71.14c3.94-3.86 4.020-10.2 0.16-14.14-3.86-3.96-10.2-4.020-14.14-0.16l-30.64 29.94v-118.78c0-5.52-4.48-10-10-10s-10 4.48-10 10v118l-29.4-30.080c-1.96-2-4.56-3.020-7.16-3.020-2.52 0-5.040 0.94-6.98 2.84-3.94 3.86-4.020 10.2-0.16 14.14l46.54 47.64c1.86 1.9 4.38 2.98 7.040 3.020 2.64 0.040 5.2-1 7.1-2.84zM273 219.76c-0.040 0-0.080 0-0.12 0l-66.6-0.76c-5.52-0.060-9.94-4.6-9.88-10.12 0.060-5.48 4.52-9.88 10-9.88h0.12l42.060 0.48-83.44-83.44c-3.9-3.9-3.9-10.24 0-14.14 1.96-1.96 4.52-2.92 7.080-2.92s5.12 0.98 7.080 2.92l84 84 0.5-42.84c0.060-5.48 4.52-9.88 10-9.88h0.12c5.52 0.060 9.94 4.6 9.88 10.12l-0.76 66.6c-0.12 5.46-4.58 9.86-10.040 9.86zM184.54 448.66c-0.040 2.66-1.12 5.18-3 7.040l-47.64 46.54c-3.96 3.86-10.28 3.78-14.14-0.16s-3.78-10.28 0.16-14.14l30.080-29.4h-118c-5.52 0-10-4.48-10-10s4.48-10 10-10h118.78l-29.94-30.64c-3.86-3.94-3.78-10.28 0.16-14.14 1.94-1.9 4.46-2.84 6.98-2.84 2.6 0 5.2 1 7.16 3.020l46.54 47.64c1.86 1.88 2.88 4.42 2.86 7.080zM249.9 696.74l-42.84-0.5c-5.52-0.060-9.94-4.6-9.88-10.12 0.060-5.48 4.52-9.88 10-9.88h0.12l66.6 0.76c5.52 0.060 9.94 4.6 9.88 10.12l-0.76 66.6c-0.060 5.48-4.52 9.88-10 9.88-0.040 0-0.080 0-0.12 0-5.52-0.060-9.94-4.6-9.88-10.12l0.48-42.060-83.46 83.44c-3.9 3.9-10.24 3.9-14.14 0s-3.9-10.24 0-14.14zM505.56 778.32c1.86-1.82 4.38-2.84 6.98-2.84h0.12c2.66 0.040 5.18 1.12 7.040 3.020l46.54 47.64c3.86 3.94 3.78 10.28-0.16 14.14-3.96 3.86-10.28 3.78-14.14-0.16l-29.4-30.12v118c0 5.52-4.48 10-10 10s-10-4.48-10-10v-118.78l-30.64 29.94c-3.96 3.86-10.28 3.78-14.14-0.16s-3.78-10.28 0.16-14.14zM751 676.24h0.12l66.6 0.76c5.52 0.060 9.94 4.6 9.88 10.12-0.060 5.48-4.52 9.88-10 9.88-0.040 0-0.080 0-0.12 0l-42.060-0.48 83.44 83.44c3.9 3.9 3.9 10.24 0 14.14s-10.24 3.9-14.14 0l-84-84-0.5 42.84c-0.060 5.52-4.58 9.92-10.12 9.88-5.52-0.060-9.94-4.6-9.88-10.12l0.76-66.6c0.1-5.46 4.56-9.86 10.020-9.86zM992 457.46h-118.78l29.94 30.64c3.86 3.94 3.78 10.28-0.16 14.14-3.96 3.86-10.28 3.8-14.14-0.16l-46.54-47.64c-1.86-1.9-2.88-4.46-2.84-7.1s1.12-5.18 3-7.040l47.64-46.54c1.94-1.9 4.46-2.84 6.98-2.84 2.6 0 5.2 1 7.16 3.020 3.86 3.94 3.78 10.28-0.16 14.14l-30.1 29.38h118c5.52 0 10 4.48 10 10s-4.48 10-10 10zM774.1 199.26l42.84 0.5c5.52 0.060 9.94 4.6 9.88 10.12-0.060 5.48-4.52 9.88-10 9.88-0.040 0-0.080 0-0.12 0l-66.6-0.76c-5.52-0.060-9.94-4.6-9.88-10.12l0.76-66.6c0.060-5.48 4.52-9.88 10-9.88h0.12c5.52 0.060 9.94 4.6 9.88 10.12l-0.48 42.060 83.44-83.44c1.96-1.96 4.52-2.92 7.080-2.92s5.12 0.98 7.080 2.92c3.9 3.9 3.9 10.24 0 14.14zM804.1 448c0-161.060-131.040-292.1-292.1-292.1s-292.1 131.040-292.1 292.1 131.040 292.1 292.1 292.1 292.1-131.040 292.1-292.1zM239.9 448c0-65.38 23.18-125.42 61.74-172.4 40.98 77.98 121.86 128.4 210.2 129.74h0.3c88.34-1.32 169.22-51.76 210.2-129.74 38.56 46.96 61.74 107.020 61.74 172.4 0 150.040-122.060 272.1-272.1 272.1-150.020 0-272.080-122.060-272.080-272.1zM708.060 259.54c-36.36 75.34-112.58 124.48-196.060 125.8-83.48-1.32-159.7-50.46-196.060-125.8 49.54-51.52 119.12-83.62 196.060-83.62 76.94-0.020 146.52 32.1 196.060 83.62zM402 549.54c0 60.66 49.34 110 110 110s110-49.34 110-110-49.34-110-110-110-110 49.34-110 110zM422 549.54c0-49.62 40.38-90 90-90s90 40.38 90 90-40.38 90-90 90-90-40.38-90-90z" />
<glyph unicode="&#xe932;" glyph-name="real-estate-agency" d="M1010 4h-986c-8 0-14 6-14 14s6 14 14 14h986c8 0 14-6 14-14s-6-14-14-14zM58 444c-16 0-30 6-40 16-12 12-18 26-18 42s6 30 18 42l332 332c10 10 26 16 42 16s30-6 40-16l148-148c2-2 4-6 4-10v-68c0-8-6-14-14-14h-12v-18c0-6-2-12-8-14-4-2-10 0-14 4l-144 142-292-290c-10-10-26-16-42-16zM392 864c-10 0-16-4-22-8l-334-332c-4-6-8-14-8-22s4-16 8-22c6-6 14-8 22-8s16 2 22 8l302 300c4 6 14 6 20 0l130-130c4 8 12 14 20 14h4v48l-142 144c-6 4-14 8-22 8zM696 4h-610c-8 0-14 6-14 14v448c0 6 2 10 6 12 0 0 2 2 2 2 6 6 14 6 20 0 6-4 6-14 0-20v-428h596c8 0 14-6 14-14s-6-14-14-14zM782 384c-8 0-14 6-14 14v68c0 8 6 14 14 14s14-6 14-14v-68c0-8-6-14-14-14zM644 384c-8 0-14 6-14 14v68c0 8 6 14 14 14s14-6 14-14v-68c0-8-6-14-14-14zM714 270c-24 0-44 14-52 36-4 6 0 14 6 18 8 2 16 0 20-8 4-10 14-18 26-18s22 8 26 18c4 8 12 10 18 8 8-4 12-12 8-18-8-22-30-36-52-36zM956 4h-484c-8 0-14 6-14 14v230c0 80 60 150 140 162 8 0 14-4 16-12 0-8-4-16-12-16-66-10-116-68-116-134v-216h456v216c0 66-50 124-116 134-8 0-12 8-12 16 2 8 8 12 16 12 80-12 140-82 140-162v-230c0-8-6-14-14-14zM714 4c-4 0-8 2-12 6l-50 64c-2 4-2 8-2 10l34 206c0 8 8 12 16 12 8-2 12-8 12-16l-34-200 36-46 36 46-34 200c0 8 4 14 12 16 8 0 14-4 16-12l34-206c0-2 0-6-4-10l-50-64c-2-4-6-6-10-6zM770 280c-4 0-8 2-10 4l-56 56c-6 6-6 14 0 20l38 46c2 4 6 6 10 6h54c8 0 16-2 24-2 4-2 8-4 10-8s2-10 0-14l-58-100c-2-4-6-6-10-8zM732 352l34-34 38 66h-46zM658 280h-2c-4 2-8 4-10 8l-58 100c-2 4-2 10 0 14s6 6 10 8c8 0 16 2 24 2h54c4 0 8-2 10-6l38-46c6-6 4-14 0-20l-56-56c-2-2-6-4-10-4zM622 384l38-66 34 34-26 32zM364 4h-278c-8 0-14 6-14 14v286c0 8 6 14 14 14h278c8 0 14-6 14-14v-286c0-8-6-14-14-14zM100 32h250v258h-250zM306 128c-8 0-14 6-14 14v38c0 8 6 14 14 14s14-6 14-14v-38c0-8-6-14-14-14zM736 690h-166c-8 0-14 6-14 14s6 14 14 14h162l6 6c8 14 18 34 44 38 22 6 50-4 82-30 8-4 8-12 4-18s-14-8-20-4c-26 20-48 28-62 26-12-4-18-14-24-26-6-10-14-20-26-20zM714 434c-38 0-74 14-102 38-26 22-44 50-52 82h-8c-12 0-22 10-22 22v66c0 12 10 22 22 22h4v48c0 88 70 158 158 158 86 0 156-70 156-158v-48h4c12 0 22-10 22-22v-66c0-12-10-22-22-22h-8c-8-32-26-60-50-82-30-24-66-38-102-38zM558 582h14c6 0 12-4 14-12 10-60 64-108 128-108 62 0 116 48 126 108 2 8 8 12 14 12h14v54h-12c-6 0-14 6-14 14v62c0 72-58 130-128 130-72 0-130-58-130-130v-62c0-8-6-14-14-14h-12zM392 402h-154c-8 0-14 8-14 14v102c0 8 6 14 14 14h154c6 0 14-6 14-14v-102c0-6-8-14-14-14zM252 430h126v74h-126zM866 4h-304c-8 0-14 6-14 14v208c0 8 6 14 14 14s14-6 14-14v-194h276v194c0 8 6 14 14 14s14-6 14-14v-208c0-8-6-14-14-14z" />
<glyph unicode="&#xe933;" glyph-name="quality" d="M627.82 543.12l-153.856-145.32-73.84 75.965c-8.186 8.428-21.665 8.619-30.084 0.433-8.428-8.194-8.619-21.665-0.433-30.093l88.561-90.912c8.228-8.278 21.523-8.561 30.093-0.634l169.228 159.617c4.11 3.876 6.51 9.228 6.669 14.871s-1.934 11.12-5.818 15.221c-8.236 8.561-21.815 8.936-30.518 0.85zM513.651 766.765c-175.838 0-318.816-142.978-318.816-318.816 0-175.847 142.978-318.825 318.816-318.825 175.847 0 318.825 142.978 318.825 318.825 0 175.838-142.978 318.816-318.825 318.816zM513.651 171.804c-152.364 0-276.136 123.989-276.136 276.145s123.772 276.136 276.136 276.136c152.514 0 276.145-123.63 276.145-276.136s-123.63-276.145-276.145-276.145zM952.404 565.318l7.044 126.548c0.492 8.494-4.126 16.472-11.737 20.273l-112.677 56.976-56.976 112.677c-3.876 7.544-11.804 12.137-20.273 11.737l-126.765-6.835-105.633 69.788c-7.119 4.693-16.347 4.693-23.474 0l-105.633-69.788-126.54 7.044c-8.503 0.5-16.472-4.118-20.273-11.737l-56.984-112.677-112.669-56.976c-7.552-3.868-12.137-11.795-11.737-20.273l7.036-126.548-69.78-105.633c-4.693-7.119-4.693-16.347 0-23.474l69.572-105.841-7.044-126.548c-0.492-8.494 4.118-16.472 11.737-20.273l112.677-56.976 56.976-112.677c3.868-7.552 11.795-12.137 20.273-11.737l126.548 7.044 105.633-69.78c7.077-4.843 16.397-4.843 23.474 0l105.633 69.78 126.548-7.044c8.494-0.492 16.463 4.126 20.273 11.737l56.976 112.677 112.677 56.976c7.544 3.876 12.137 11.795 11.737 20.273l-7.044 126.548 69.78 105.633c4.693 7.119 4.693 16.355 0 23.474zM912.709 348.075c-2.601-3.818-3.81-8.411-3.409-13.021l6.61-119.712-106.483-53.775c-4.060-2.034-7.352-5.335-9.386-9.395l-53.783-106.483-119.712 6.61c-4.585 0.167-9.111-1.017-13.021-3.409l-99.873-65.946-99.865 65.946c-3.468 2.342-7.552 3.609-11.737 3.626h-1.067l-119.721-6.619-53.775 106.492c-2.034 4.060-5.327 7.352-9.395 9.386l-106.7 53.567 6.619 119.712c0.167 4.585-1.025 9.111-3.418 13.021l-65.937 99.873 65.937 99.873c2.609 3.81 3.818 8.411 3.418 13.012l-6.619 119.721 106.492 53.775c4.060 2.034 7.352 5.327 9.386 9.386l53.775 106.492 119.721-6.619c4.576-0.158 9.103 1.025 13.021 3.418l99.865 65.937 99.873-65.937c3.818-2.609 8.419-3.818 13.021-3.418l119.712 6.619 53.783-106.492c2.034-4.060 5.327-7.352 9.386-9.386l106.483-53.775-6.61-119.721c-0.167-4.576 1.025-9.103 3.409-13.012l65.946-99.873z" />
<glyph unicode="&#xe934;" glyph-name="target" d="M588.558 726.734c-24.81 6.8-50.568 10.248-76.558 10.248-159.346 0-288.982-129.636-288.982-288.982s129.636-288.982 288.982-288.982 288.982 129.636 288.982 288.982c0 25.99-3.448 51.748-10.248 76.558-4.672 17.044 5.358 34.648 22.402 39.32 17.034 4.67 34.648-5.358 39.32-22.402 8.31-30.322 12.526-61.772 12.526-93.476 0-194.634-158.348-352.982-352.982-352.982s-352.982 158.348-352.982 352.982 158.348 352.982 352.982 352.982c31.706 0 63.154-4.214 93.476-12.526 14.214-3.896 23.55-16.788 23.548-30.848 0-2.798-0.372-5.642-1.146-8.472-4.67-17.044-22.272-27.080-39.32-22.402zM963.236 615.12c-16.946-5.018-26.618-22.82-21.6-39.768 12.186-41.16 18.364-84.006 18.364-127.352 0-247.028-200.972-448-448-448s-448 200.972-448 448 200.972 448 448 448c43.348 0 86.194-6.178 127.346-18.362 16.948-5.020 34.75 4.656 39.768 21.6 0.896 3.030 1.324 6.084 1.324 9.090 0.004 13.81-9.006 26.556-22.924 30.678-47.056 13.932-96.012 20.994-145.514 20.994-136.76 0-265.336-53.258-362.040-149.96-96.702-96.706-149.96-225.28-149.96-362.040s53.258-265.336 149.96-362.040 225.28-149.96 362.040-149.96 265.334 53.258 362.040 149.96c96.702 96.704 149.96 225.28 149.96 362.040 0 49.498-7.064 98.458-20.996 145.52-5.016 16.946-22.824 26.61-39.768 21.6zM512 576c4.706 0 9.458-0.26 14.126-0.772 17.576-1.934 33.374 10.752 35.298 28.318 1.928 17.568-10.75 33.372-28.318 35.298-6.98 0.768-14.078 1.156-21.106 1.156-105.87 0-192-86.13-192-192s86.13-192 192-192 192 86.13 192 192c0 17.674-14.326 32-32 32s-32-14.326-32-32c0-70.58-57.42-128-128-128s-128 57.42-128 128 57.42 128 128 128zM675.388 656.638l15.94 159.894c0.732 7.356 3.988 14.228 9.214 19.454l114.646 114.642c8.832 8.83 21.988 11.716 33.706 7.394 11.714-4.322 19.846-15.066 20.824-27.516l9.090-115.7 115.698-9.088c12.45-0.978 23.194-9.11 27.516-20.824 4.322-11.716 1.436-24.876-7.394-33.706l-114.644-114.642c-5.224-5.226-12.098-8.482-19.452-9.214l-159.89-15.948-186.014-186.012c-6.25-6.248-14.438-9.372-22.628-9.372-8.192 0-16.378 3.124-22.626 9.374-12.498 12.496-12.498 32.758 0 45.254zM741.816 677.812l120.992 12.068 57.47 57.47-73.736 5.792c-15.696 1.234-28.162 13.702-29.396 29.396l-5.792 73.742-57.474-57.472z" />
<glyph unicode="&#xe935;" glyph-name="earning" d="M847.392 344.1l-180.308-105.022c-9.040-5.264-18.232-8.982-27.826-11.2 3.554 5.702 6.34 12.15 8.252 19.29 9.216 34.402-11.23 70.32-46.55 81.77-0.686 0.222-1.384 0.398-2.094 0.526-51.822 9.346-102.97 27.838-144.068 42.696-14.278 5.162-27.762 10.038-39.228 13.754-46.158 14.976-87.892-3.564-122.626-23.672l-134.148-77.668-12.648 22.348c-5.582 9.866-14.7 16.972-25.672 20.014-10.968 3.042-22.446 1.642-32.312-3.942l-50.59-28.634c-9.868-5.584-16.976-14.7-20.018-25.672s-1.64-22.448 3.944-32.312l148.734-262.804c5.582-9.864 14.7-16.972 25.672-20.014 3.794-1.052 7.648-1.572 11.476-1.572 7.24 0 14.382 1.862 20.836 5.514l50.592 28.632c9.866 5.584 16.972 14.7 20.014 25.672s1.64 22.448-3.944 32.312l-15.334 27.096 30.58 17.656 230.94-61.88c13.042-3.498 25.846-5.242 38.374-5.242 24.976 0 48.852 6.938 71.322 20.772l327.22 201.488c29.828 18.364 39.292 64.65 19.852 97.106-9.438 15.756-48.172 62.546-150.442 2.988zM267.988 20.352c-0.76-2.734-2.512-4.998-4.94-6.37l-50.592-28.632c-4.97-2.818-11.554-0.996-14.376 3.984l-148.732 262.802c-1.374 2.426-1.71 5.268-0.954 8.004 0.758 2.734 2.512 4.998 4.94 6.37l50.59 28.632c1.58 0.894 3.336 1.348 5.124 1.348 0.958 0 1.926-0.13 2.88-0.396 2.734-0.758 4.998-2.512 6.372-4.938l148.734-262.804c1.372-2.424 1.712-5.266 0.954-8zM961.204 271.254l-327.22-201.488c-25.948-15.976-54.424-19.97-84.634-11.87l-237.342 63.596c-4.094 1.094-8.464 0.522-12.14-1.598l-36.082-20.832-89.228 157.66 134.42 77.826c30.068 17.412 62.602 31.996 96.718 20.928 10.96-3.554 23.594-8.122 38.22-13.41 41.932-15.16 94.044-34 148.114-43.884 18.842-6.584 29.378-24.786 24.57-42.732-6.328-23.612-26.008-26.544-41.648-24.748-26.56 5.462-51.8 12.664-78.504 20.29-12.662 3.618-25.758 7.356-39.216 10.962-8.528 2.282-17.308-2.78-19.596-11.314s2.78-17.308 11.314-19.596c13.206-3.538 26.172-7.242 38.71-10.822 27.522-7.86 53.518-15.284 81.512-21.006 0.106-0.022 0.212-0.030 0.32-0.048s0.208-0.050 0.316-0.068l22.422-3.646c33.528-5.366 63.288-0.142 90.958 15.974l180.31 105.022c51.9 30.23 91.86 33.304 106.882 8.222 10.352-17.288 5.722-44.246-9.176-53.418zM118.602 244.386c1.444-9.87-5.388-19.042-15.26-20.486-9.87-1.442-19.042 5.39-20.486 15.26-1.442 9.87 5.388 19.042 15.26 20.486s19.044-5.388 20.486-15.26zM1008 836.054v30.458c0 31.698-25.79 57.488-57.486 57.488h-260.758c-31.698 0-57.486-25.79-57.486-57.488v-30.458c0-16.294 6.826-31.016 17.754-41.488-10.928-10.47-17.754-25.192-17.754-41.486v-30.458c0-2.28 0.144-4.556 0.416-6.816-83.722-18.918-146.436-93.896-146.436-183.254 0-103.59 84.278-187.866 187.868-187.866 69.252 0 129.864 37.67 162.442 93.588h113.954c31.698 0 57.486 25.788 57.486 57.486v30.46c0 16.294-6.826 31.016-17.754 41.486 10.928 10.47 17.754 25.192 17.754 41.486v30.458c0 16.294-6.826 31.014-17.754 41.486 10.928 10.47 17.754 25.192 17.754 41.486v30.458c0 16.294-6.826 31.014-17.754 41.486 10.928 10.472 17.754 25.194 17.754 41.488zM674.118 376.688c-85.946 0-155.868 69.92-155.868 155.866s69.922 155.866 155.868 155.866 155.866-69.92 155.866-155.866-69.922-155.866-155.866-155.866zM976 526.22v-30.458c0-14.052-11.434-25.486-25.486-25.486h-99.156c6.872 19.5 10.624 40.456 10.624 62.278 0 6.464-0.328 12.854-0.97 19.154h89.5c14.054 0 25.488-11.434 25.488-25.488zM976 639.652v-30.458c0-14.052-11.434-25.486-25.486-25.486h-95.612c-8.834 31.18-25.536 59.086-47.814 81.43h143.426c14.052-0.002 25.486-11.434 25.486-25.486zM976 753.082v-30.458c0-14.054-11.434-25.486-25.486-25.486h-185.894c-26.86 14.83-57.71 23.284-90.502 23.284-3.252 0-6.488-0.084-9.7-0.248-0.078 0.81-0.148 1.624-0.148 2.45v30.458c0 14.052 11.434 25.486 25.486 25.486h260.758c14.052 0 25.486-11.434 25.486-25.486zM689.756 810.568c-14.052 0-25.486 11.434-25.486 25.488v30.456c0 14.054 11.434 25.488 25.486 25.488h260.758c14.052 0 25.486-11.434 25.486-25.488v-30.458c0-14.054-11.434-25.488-25.486-25.488h-260.758zM744.834 494.252c1.782-14.678-2.176-28.098-11.444-38.812-9.78-11.306-25.398-19.16-43.274-22.088v-9.554c0-8.836-7.164-16-16-16s-16 7.164-16 16v9.81c-27.314 5.208-48.318 23.404-54.66 48.846-2.136 8.574 3.082 17.256 11.656 19.394 8.58 2.134 17.256-3.082 19.394-11.656 4.954-19.87 25.44-26.434 41.47-26.090 14.016 0.334 27.050 5.152 33.208 12.272 3.34 3.862 4.572 8.316 3.88 14.022-1.166 9.592-6.924 21.332-41.386 26.988-50.23 8.25-61.958 34.364-62.95 54.82-1.376 28.3 18.244 51.974 48.816 58.91 0.19 0.042 0.378 0.084 0.568 0.126v10.072c0 8.836 7.164 16 16 16s16-7.164 16-16v-9.93c20.104-4.152 39.376-16.666 49.35-40.422 3.422-8.148-0.41-17.526-8.556-20.946-8.144-3.42-17.524 0.408-20.948 8.558-8.376 19.944-28.8 25.082-45.336 21.336-12.050-2.734-24.666-11.040-23.934-26.15 0.252-5.198 0.924-19.006 36.172-24.794 41.524-6.818 64.392-25.224 67.974-54.712zM336.878 791.998h30.816v-197.882c0-8.836 7.164-16 16-16h64.786c8.836 0 16 7.164 16 16v197.882h30.816c5.886 0 11.298 3.234 14.090 8.418 2.79 5.184 2.506 11.482-0.736 16.396l-79.208 120.002c-2.962 4.486-7.98 7.186-13.354 7.186s-10.392-2.7-13.354-7.186l-79.208-120.002c-3.242-4.914-3.526-11.212-0.736-16.396 2.79-5.186 8.202-8.418 14.088-8.418zM416.088 898.956l49.476-74.958h-17.084c-8.836 0-16-7.164-16-16v-197.882h-32.786v197.882c0 8.836-7.164 16-16 16h-17.084z" />
<glyph unicode="&#xe936;" glyph-name="graduation-cap" d="M1015.213 257.223l-79.314 79.316v272.062l51.781 18.668c11.887 4.288 19.814 15.561 19.824 28.199 0.010 12.635-7.901 23.924-19.784 28.225l-473.755 171.572c-6.597 2.39-13.831 2.39-20.428 0l-473.753-171.572c-11.837-4.288-19.736-15.507-19.784-28.095-0.044-12.589 7.773-23.866 19.576-28.239l174.841-64.768v-197.693c0-6.135 1.88-12.125 5.389-17.156 1.93-2.768 20.21-27.731 67.014-51.289 59.128-29.765 136.681-44.858 230.5-44.858 93.751 0 171.696 15.061 231.668 44.768 47.265 23.412 66.154 48.115 68.153 50.853 3.744 5.134 5.761 11.323 5.761 17.678v195.761l73.003 26.319v-250.436l-79.316-79.316c-5.625-5.625-8.787-13.255-8.787-21.21s3.16-15.587 8.787-21.21l79.316-79.314v-66.548c0-16.566 13.431-29.997 29.997-29.997s29.997 13.431 29.997 29.997v66.548l79.314 79.314c11.715 11.711 11.715 30.707-0.002 42.42zM503.752 795.158l385.485-139.605-391.775-141.244-380.252 140.863zM742.907 376.854c-102.548-92.275-407.275-81.694-488.495-0.3v163.812l232.488-86.124c3.69-0.584 7.173-3.766 20.594-0.092l235.415 84.872v-162.168zM905.901 190.334l-45.682 45.68 45.682 45.682 45.68-45.682z" />
</font>
</defs>
</svg>
